Самый маленький щенок / Кудряш, маленький щенок, Хайди / Curly. The Littlest Puppy, Heidi (Тошиюки Хирума / Toshiyuki Hiruma, Такаши / Takashi) [1995, Анимация, VHSRip] MVO :: Ивановский Торрент трекер
Важное объявление!
У Нас Все раздачи мультитрекерные, при нуле пиров в релизах, можете смело вставать на закачку!
Статистика раздачи
Размер:     |    Зарегистрирован:     |    Скачан:     |   
Нет
 
     
 
 
Автор Сообщение

HUNTER

Стаж:
4 года 11 месяцев
Сообщений:
66090

Репутация: 101

[+] [-]
Вне форума [Профиль] [ЛС]

Самый маленький щенок / Кудряш, маленький щенок, Хайди / Curly. The Littlest Puppy, Heidi
Страна: Япония, США
Жанр: Анимация
Продолжительность: 00:44:19
Год выпуска: 1995
Перевод: Профессиональный (многоголосый закадровый) Инис, Союз Видео
Русские субтитры: нет
Режиссёр: Тошиюки Хирума / Toshiyuki Hiruma, Такаши / Takashi
Роли озвучивали: Тони Эйл
Нэйтан Эсвелл
Чера Бэйли
Кэтлин Барр
Гари Чок
Лиллиэн Карлсон
Йен Джеймс Корлетт
Майкл Донован
Кент Галли
Фил Хэйес
Описание: Когда малютке Хейли пришлось переехать к своей не очень приветливой тетушке Джудит, ее будущее казалось ей совсем безрадостным, пока не появился Кудряш. Этот беспризорный и разномастный щенок приводил в восторг всех, кто его видел, - всех, кроме тетушки Джудит и ее высокомерных собак-медалистов, чистокровных афганских борзых. Но даже их постоянные ехидные замечания в его адрес и нежелание общаться "с какой-то дворнягой" не могли обескуражить умного песика! Кудряш докажет всем, что сила настоящей любви может творить чудеса, согреть домашний очаг и растопить даже ледяное сердце. "Кудряш" - это яркие, запоминающиеся герои, это увлекательный и волнующий мультфильм с приключениями, который наверняка станет одним из самых любимых фильмов для семьи.
Доп. информация: Оцифровка лицензионной VHS (личный архив) и получение VHSRip alenavova
Эксклюзив для rutracker.org. При размещении данного релиза на других сайтах ссылка на автора alenavova обязательна.

Релиз
Семпл: https://yadi.sk/i/fWlZ4eVxjMEsU
Качество: VHSRip
Формат: AVI
Видео: 704x528 (1.33:1), 25 fps, XviD build 50 ~2163 kbps avg, 0.23 bit/pixel
Аудио: 48 kHz, AC3 Dolby Digital, 2/0 (L,R) ch, ~192 kbps
Субтитры: отсутствуют

Подробные технические данные

Самый маленький щенок - Curly. The Littlest Puppy, Heidi (by alenavova).aviFormat : AVIFormat/Info : Audio Video InterleaveFile size : 750 MiBDuration : 44mn 19sOverall bit rate : 2 366 KbpsMovie name : Самый маленький щенок - Curly. The Littlest Puppy, Heidi (by alenavova)Director : by alenavovaWriting application : VirtualDubMod 1.5.10.3 | www.virtualdub-fr.org || (build 2550/release)Copyright : Edich2Comment : RuTracker.org
VideoID : 0Format : MPEG-4 VisualFormat profile : Advanced Simple@L5Format settings, BVOP : 1Format settings, QPel : NoFormat settings, GMC : No warppointsFormat settings, Matrix : Default (MPEG)Codec ID : XVIDCodec ID/Hint : XviDDuration : 44mn 19sBit rate : 2 164 KbpsWidth : 704 pixelsHeight : 528 pixelsDisplay aspect ratio : 4:3Frame rate : 25.000 fpsColor space : YUVChroma subsampling : 4:2:0Bit depth : 8 bitsScan type : ProgressiveCompression mode : LossyBits/(Pixel*Frame) : 0.233Stream size : 686 MiB (91%)Writing library : XviD 1.2.1 (UTC 2008-12-04)
AudioID : 1Format : AC-3Format/Info : Audio Coding 3Mode extension : CM (complete main)Format settings, Endianness : BigCodec ID : 2000Duration : 44mn 19sBit rate mode : ConstantBit rate : 192 KbpsChannel(s) : 2 channelsChannel positions : Front: L RSampling rate : 48.0 KHzBit depth : 16 bitsCompression mode : LossyStream size : 60.9 MiB (8%)Alignment : Split accross interleavesInterleave, duration : 40 ms (1.00 video frame)Interleave, preload duration : 500 ms

Скриншоты



_________________
Показать сообщения:    

Текущее время: Сегодня 03:55

Часовой пояс: GMT



Вы не можете начинать темы
Вы не можете отвечать на сообщения
Вы не можете редактировать свои сообщения
Вы не можете удалять свои сообщения
Вы не можете голосовать в опросах
Вы не можете прикреплять файлы к сообщениям
Вы не можете скачивать файлы