Ивановский Торрент трекер
Яндекс.Погода
 

[Цитировать]
HUNTER

Самый дурацкий корабль в армии / The Wackiest Ship in the Army
Страна: США
Студия: Columbia Pictures Corporation
Жанр: комедия, военный
Год выпуска: 1960
Продолжительность: 01:39:24
Перевод: Профессиональный (многоголосый закадровый) Петербург 5 канал
Cубтитры: английские
Оригинальная аудиодорожка: английский
Режиссер: Ричард Мерфи / Richard Murphy
В ролях: Джек Леммон, Рики Нельсон, Джон Ланд, Чипс Рафферти, Том Талли, Джоби Бэйкер, Уоррен Берлинджер, Патриция Дрисколл, Майк Келлин, Ричард Андерсон
Описание: Бывший яхтсмен, а ныне лейтенант американской армии, поверив радужным обещаниям, отправляется командовать «Самым дурацким кораблем в армии» — грудой металлолома с командой матросов-недотеп. И уж конечно, ни капитан, ни команда не знают, что на их корабль возложена сверхсекретная миссия по спасению союзников, оказавшихся на японской территории…
Доп. информация: За русскую дорожку спасибо Fog99999.

Sample
Тип релиза: WEB-DL 720p
Контейнер: MKV
Видео: MPEG4 AVC Video, H264, 16:9, 1280x542, 23.976 fps, 3859 kbps
Аудио: Russian (AC3, 2 ch, 192 kbps, 16 bits, 48.0 KHz) - MVO
Аудио 2: English (AC3, 2 ch, 192 kbps, 16 bits, 48.0 KHz) - оригинал
Формат субтитров: softsub (SRT)

MediaInfo

General
Unique ID : 202158071385089274294633782226392283358 (0x98163A730C98D77D999F3EA7DA2978DE)
Complete name : E:\The Wackiest Ship In the Army 1960 WEB-DL 720p.mkv
Format : Matroska
Format version : Version 4 / Version 2
File size : 3.01 GiB
Duration : 1h 39mn
Overall bit rate : 4 330 Kbps
Encoded date : UTC 2015-10-07 18:05:34
Writing application : mkvmerge v6.1.0 ('Old Devil') built on Mar 2 2013 14:32:37
Writing library : libebml v1.3.0 + libmatroska v1.4.0
Video
ID : 1
Format : AVC
Format/Info : Advanced Video Codec
Format profile : Main@L3.1
Format settings, CABAC : No
Format settings, ReFrames : 2 frames
Codec ID : V_MPEG4/ISO/AVC
Duration : 1h 39mn
Bit rate : 3 859 Kbps
Width : 1 280 pixels
Height : 542 pixels
Display aspect ratio : 2.35:1
Frame rate mode : Constant
Frame rate : 23.976 fps
Color space : YUV
Chroma subsampling : 4:2:0
Bit depth : 8 bits
Scan type : Progressive
Bits/(Pixel*Frame) : 0.232
Stream size : 2.68 GiB (89%)
Language : English
Default : Yes
Forced : No
Color primaries : BT.709
Transfer characteristics : BT.709
Matrix coefficients : BT.709
Audio #1
ID : 2
Format : AC-3
Format/Info : Audio Coding 3
Mode extension : CM (complete main)
Format settings, Endianness : Big
Codec ID : A_AC3
Duration : 1h 39mn
Bit rate mode : Constant
Bit rate : 192 Kbps
Channel count : 2 channels
Channel positions : Front: L R
Sampling rate : 48.0 KHz
Bit depth : 16 bits
Compression mode : Lossy
Stream size : 137 MiB (4%)
Language : Russian
Default : Yes
Forced : No
Audio #2
ID : 3
Format : AC-3
Format/Info : Audio Coding 3
Mode extension : CM (complete main)
Format settings, Endianness : Big
Codec ID : A_AC3
Duration : 1h 39mn
Bit rate mode : Constant
Bit rate : 192 Kbps
Channel count : 2 channels
Channel positions : Front: L R
Sampling rate : 48.0 KHz
Bit depth : 16 bits
Compression mode : Lossy
Stream size : 137 MiB (4%)
Language : English
Default : No
Forced : No
Text
ID : 4
Format : UTF-8
Codec ID : S_TEXT/UTF8
Codec ID/Info : UTF-8 Plain Text
Language : English
Default : No
Forced : No
Menu
00:00:00.000 : en:Start
00:06:50.000 : en:The Echo
00:15:52.000 : en:Suspicious Crandall
00:22:27.000 : en:New Skipper
00:31:18.000 : en:Sailors New To Sailing
00:42:46.000 : en:Shipping Out
00:49:09.000 : en:The Echo's Mission
00:55:58.000 : en:Adventures In Docking
01:03:40.000 : en:A Court-Martial Offense
01:13:44.000 : en:Off The Charts
01:23:49.000 : en:Convoy Sighted
01:30:22.000 : en:Hostile Takeover

Скриншоты

Показать сообщения:    

Текущее время: 22-Сен 08:44

Часовой пояс: UTC - 1


Вы не можете начинать темы
Вы не можете отвечать на сообщения
Вы не можете редактировать свои сообщения
Вы не можете удалять свои сообщения
Вы не можете голосовать в опросах
Вы не можете прикреплять файлы к сообщениям
Вы не можете скачивать файлы

!ВНИМАНИЕ!
Сайт не предоставляет электронные версии произведений, а занимается лишь коллекционированием и каталогизацией ссылок, присылаемых и публикуемых на форуме нашими читателями. Если вы являетесь правообладателем какого-либо представленного материала и не желаете, чтобы ссылка на него находилась в нашем каталоге, свяжитесь с нами, и мы незамедлительно удалим ее. Файлы для обмена на трекере предоставлены пользователями сайта, и администрация не несет ответственности за их содержание. Просьба не заливать файлы, защищенные авторскими правами, а также файлы нелегального содержания!