Ивановский Торрент трекер
Яндекс.Погода
 

[Цитировать]
HUNTER

Самые громкие преступления и процессы 20-го века
Great Crimes And Trials Of The 20th Century
Год выпуска: 1992-1995
Страна: Великобритания
Жанр: Криминальная документалистика
Продолжительность: 00:25:00
Перевод: Одноголосый закадровый (НТВ, Культура)
Русские субтитры: нет
Режиссер: Филипп Нугус и Джонатан Мартин (Philip Nugus and Johnathan Martin " Nugus / Martin Productions LTD ")
Описание: Сериал выходил в девяностые на отечественном ТВ, посвящен истории правосудия во всем мире.
Рассказывает о самых выдающихся, первых в своём роде и культовых криминальных личностях прошлого века и о событиях которые изменили историю и судьбы многих людей.
Каждая серия фильма посвящена одному громкому событию. Мнения экспертов, подлинные документы, реконструкции событий, свидетельства очевидцев – множество деталей, чтобы восстановить подробности каждой истории, чтобы оказаться лицом к лицом с преступников, понять его мотивы, причины и подробности каждого преступления.
Доп. информация: Видео взято из раздачи - http://rutracker.org/forum/viewtopic.php?t=4514789 и по составу ей идентично, но пережато в значительно меньший размер для удобства хранения и быстроты скачивания, практически без потерь качества по сравнению с оригинальной раздачей. Здесь серии по 300 Мб каждая в формате MKV, в отличии от исходных 800 Мб - 1100 Мб в родной.
Огромное спасибо Максиму Геннадьевичу за родную раздачу - http://rutracker.org/forum/viewtopic.php?t=4514789
Также большое спасибо Detective Makkoy которые оцифровал данный раритетный сериал со своих видео кассе.
Для сравнения:
семпл исходной раздачи - http://multi-up.com/895416
семпл этой - Сэмпл: http://multi-up.com/930824
качество: TVRip / VHSRip
формат: MKV
Видео: AVC, 720x576, 4:3, 1500 Кбит/сек, 24,000 кадра/сек
Аудио: MP3, Переменный, 44,1 КГц, 2 канала

Список выпусков/серий

31 серия
Большое ограбление поезда
Браун и Кеннеди. И другие убийцы полицейских
Дело Гэри Гилмора
Дело доктора Сэма Шеппарда
Деннис Нильсен - дружелюбный убийца
Джек-Раздеватель
Джон Гейси - клоун убийца
Джон Диллинджер - враг общества № 1
Джон Кристи с улицы Рилингтон-Плейс
Джон Хейг - убийца с кислотной ванной
Доктор Джеффри Макдональд - убийца в зеленом берете
Доктор Криппен
Дональд Мерретт - пират убийца
Дэн Уайт - убийца в мэрии
Дэфео и Бенсон - убийства ради наследства
Счастливчик Лучиано и мафия
Леонард Лейк - серийные убийства в округе Калаверас
Лорд Хо-Хо. Измена Уильяма Джойса
Ма Баркер и другие враги общества
Невилл Хит - убийца женщин
Побег из Алькатраса
Похищение Пэтти Херст
Похищение ребенка Линдбергов
Ричард Рамирез - ночной сталкер
Роберт, Дадди и Уитни - резня на Брейбург-стрит
Розенберги - шпионы?
Убийства "семьи" Мэнсона
Уэйн Уильямс - убийца из Атланты
Хилдсайдские душители
Чарли Старквезер - убийца с пустоши
Черная пантера
Описание серий можно прочитать здесь - http://rutracker.org/forum/viewtopic.php?t=4514789

MediaInfo

Общее
Уникальный идентификатор : 184177322457163572730735951265774655203 (0x8A8F4315092D1074869ED045D42756E3)
Полное имя : F:\doc\Самые громкие приступления и процессы 20-го века.MKV\Большое ограбление поезда.mkv
Формат : Matroska
Версия формата : Version 4 / Version 2
Размер файла : 288 Мбайт
Продолжительность : 25 м.
Режим общего битрейта : Переменный
Общий поток : 1579 Кбит/сек
Дата кодирования : UTC 2013-12-09 00:17:44
Программа кодирования : mkvmerge v6.2.0 ('Promised Land') built on Apr 28 2013 12:22:01
Библиотека кодирования : libebml v1.3.0 + libmatroska v1.4.0
Видео
Идентификатор : 1
Формат : AVC
Формат/Информация : Advanced Video Codec
Профиль формата : High@L4.0
Параметр CABAC формата : Да
Параметр ReFrames формата : 2 кадра
Идентификатор кодека : V_MPEG4/ISO/AVC
Продолжительность : 25 м.
Битрейт : 1500 Кбит/сек
Ширина : 720 пикселей
Высота : 576 пикселей
Соотношение сторон : 4:3
Режим частоты кадров : Постоянный
Частота кадров : 24,000 кадра/сек
Стандарт вещания : PAL
Цветовое пространство : YUV
Субдискретизация насыщенности : 4:2:0
Битовая глубина : 8 бит
Тип развёртки : Прогрессивная
Бит/(Пиксели*Кадры) : 0.151
Размер потока : 268 Мбайт (93%)
Библиотека кодирования : x264 core 140 r2377kMod 1ca7bb9
Настройки программы : cabac=1 / ref=2 / deblock=1:0:0 / analyse=0x3:0x113 / me=hex / subme=7 / psy=1 / fade_compensate=0.00 / psy_rd=1.00:0.00 / mixed_ref=1 / me_range=16 / chroma_me=1 / trellis=1 / 8x8dct=1 / cqm=0 / deadzone=21,11 / fast_pskip=1 / chroma_qp_offset=-2 / threads=11 / lookahead_threads=1 / sliced_threads=0 / nr=0 / decimate=1 / interlaced=0 / bluray_compat=0 / constrained_intra=0 / fgo=0 / bframes=1 / b_pyramid=0 / b_adapt=1 / b_bias=0 / direct=1 / weightb=1 / open_gop=0 / weightp=2 / keyint=250 / keyint_min=25 / scenecut=40 / intra_refresh=0 / rc_lookahead=40 / rc=2pass / mbtree=1 / bitrate=1500 / ratetol=1.0 / qcomp=0.60 / qpmin=0 / qpmax=69 / qpstep=4 / cplxblur=20.0 / qblur=0.5 / ip_ratio=1.40 / aq=1:1.00
Default : Да
Forced : Нет
Аудио
Идентификатор : 2
Формат : MPEG Audio
Версия формата : Version 1
Профиль формата : Layer 3
Режим : Joint stereo
Расширение режима : MS Stereo
Идентификатор кодека : A_MPEG/L3
Идентификатор кодека/Подсказка : MP3
Продолжительность : 25 м.
Вид битрейта : Переменный
Битрейт : 77,0 Кбит/сек
Минимальный битрейт : 32,0 Кбит/сек
Каналы : 2 канала
Частота : 44,1 КГц
Метод сжатия : С потерями
Размер потока : 14,0 Мбайт (5%)
Библиотека кодирования : LAME3.99r
Настройки программы : -m j -V 6 -q 0 -lowpass 16.5 --vbr-mt -b 32
Default : Да
Forced : Нет
Общее
Уникальный идентификатор : 197126515414510340824510162759147883091 (0x944D2F96498A8410A0FDCBC2B9048A53)
Полное имя : F:\doc\Самые громкие приступления и процессы 20-го века.MKV\Хилдсайдские душители.mkv
Формат : Matroska
Версия формата : Version 4 / Version 2
Размер файла : 285 Мбайт
Продолжительность : 25 м.
Режим общего битрейта : Переменный
Общий поток : 1573 Кбит/сек
Дата кодирования : UTC 2013-12-09 07:08:36
Программа кодирования : mkvmerge v6.2.0 ('Promised Land') built on Apr 28 2013 12:22:01
Библиотека кодирования : libebml v1.3.0 + libmatroska v1.4.0
Видео
Идентификатор : 1
Формат : AVC
Формат/Информация : Advanced Video Codec
Профиль формата : High 10@L4.0
Параметр CABAC формата : Да
Параметр ReFrames формата : 2 кадра
Идентификатор кодека : V_MPEG4/ISO/AVC
Продолжительность : 25 м.
Битрейт : 1500 Кбит/сек
Ширина : 720 пикселей
Высота : 576 пикселей
Соотношение сторон : 4:3
Режим частоты кадров : Постоянный
Частота кадров : 24,000 кадра/сек
Стандарт вещания : PAL
Цветовое пространство : YUV
Субдискретизация насыщенности : 4:2:0
Битовая глубина : 10 бит
Тип развёртки : Прогрессивная
Бит/(Пиксели*Кадры) : 0.151
Размер потока : 267 Мбайт (94%)
Библиотека кодирования : x264 core 140 r2377kMod 1ca7bb9
Настройки программы : cabac=1 / ref=2 / deblock=1:-1:-1 / analyse=0x3:0x113 / me=hex / subme=7 / psy=1 / fade_compensate=0.00 / psy_rd=1.00:0.00 / mixed_ref=1 / me_range=16 / chroma_me=1 / trellis=1 / 8x8dct=1 / cqm=0 / deadzone=21,11 / fast_pskip=1 / chroma_qp_offset=-2 / threads=11 / lookahead_threads=1 / sliced_threads=0 / nr=0 / decimate=1 / interlaced=0 / bluray_compat=0 / constrained_intra=0 / fgo=0 / bframes=1 / b_pyramid=0 / b_adapt=1 / b_bias=0 / direct=1 / weightb=1 / open_gop=0 / weightp=2 / keyint=250 / keyint_min=25 / scenecut=40 / intra_refresh=0 / rc_lookahead=40 / rc=abr / mbtree=1 / bitrate=1500 / ratetol=1.0 / qcomp=0.60 / qpmin=0 / qpmax=81 / qpstep=4 / ip_ratio=1.40 / aq=1:1.00
Default : Да
Forced : Нет
Аудио
Идентификатор : 2
Формат : MPEG Audio
Версия формата : Version 1
Профиль формата : Layer 3
Режим : Joint stereo
Расширение режима : MS Stereo
Идентификатор кодека : A_MPEG/L3
Идентификатор кодека/Подсказка : MP3
Продолжительность : 25 м.
Вид битрейта : Переменный
Битрейт : 67,8 Кбит/сек
Минимальный битрейт : 32,0 Кбит/сек
Каналы : 2 канала
Частота : 44,1 КГц
Метод сжатия : С потерями
Размер потока : 12,3 Мбайт (4%)
Библиотека кодирования : LAME3.99r
Настройки программы : -m j -V 6 -q 0 -lowpass 16.5 --vbr-mt -b 32
Default : Да
Forced : Нет

Скриншоты






Показать сообщения:    

Текущее время: 19-Окт 06:28

Часовой пояс: UTC - 1


Вы не можете начинать темы
Вы не можете отвечать на сообщения
Вы не можете редактировать свои сообщения
Вы не можете удалять свои сообщения
Вы не можете голосовать в опросах
Вы не можете прикреплять файлы к сообщениям
Вы не можете скачивать файлы

!ВНИМАНИЕ!
Сайт не предоставляет электронные версии произведений, а занимается лишь коллекционированием и каталогизацией ссылок, присылаемых и публикуемых на форуме нашими читателями. Если вы являетесь правообладателем какого-либо представленного материала и не желаете, чтобы ссылка на него находилась в нашем каталоге, свяжитесь с нами, и мы незамедлительно удалим ее. Файлы для обмена на трекере предоставлены пользователями сайта, и администрация не несет ответственности за их содержание. Просьба не заливать файлы, защищенные авторскими правами, а также файлы нелегального содержания!