Ивановский Торрент трекер
Яндекс.Погода
 

[Цитировать]
HUNTER

Самурай Джек
Премьерный фильм
-Samurai Jack
The Premiere Movie
-Страна: США
Жанр: фантастика, фэнтези, боевик, приключения
Продолжительность: 01:05:56
Год выпуска: 2001
Перевод #1: Профессиональный (дублированный) Cartoon Network Russia
Перевод #2: Авторский (одноголосый закадровый) Пётр Гланц
Русские субтитры: нет-Режиссёр: Дженнди Тартаковский / Genndy Tartakovsky
Роли озвучивали: Фил ЛаМарр, Мако Иуваматсу, Саб Симоно, Роб Полсен, Джефф Беннетт
Описание: В далёком прошлом существо Аку, умеющее менять форму по своему желанию, принесло на Землю смерть и разрушение. Последней надеждой людей стал юноша, посланный на обучение мастерству воина-самурая. Но когда он возвращается уже повзрослевшим, то, не без помощи Аку, оказывается перенесённым в будущее через портал в неизвестное место и время. В новом для него месте местные зовут его Джек и помогают ему вернуться в прошлое, чтобы исправить всё зло, сотворённое Аку.-Доп. информация: Объединённые в один фильм первые 3 серии одноимённого мультсериала.
Издание примечательно наличием 5.1 звука и видео без титров.-СКАЧАТЬ СЭМПЛ-Качество: DVDRip-AVC [Исходник]
Формат: MKV
Видео: AVC, 720x480@640x480 (4:3), 23.976 fps, 1400 Kbps
Аудио #1: Русский: AC3, 48 kHz, 2 ch, 192 kbps [DUB]
Аудио #2: Русский: AC3, 48 kHz, 6 ch, 384 kbps [AVO]
Аудио #3: Английский: AC3, 48 kHz, 6 ch, 384 kbps
Субтитры: английские-

Подробные технические данные

Код:
Общее
Уникальный идентификатор                 : 186953820337501418974564123162804042443 (0x8CA5FEFF22AF1B5BB090710BF5393ACB)
Полное имя                               : E:\Samurai Jack - The Premiere Movie (2001) DVDRip-AVC.mkv
Формат                                   : Matroska
Версия формата                           : Version 4 / Version 2
Размер файла                             : 1,09 Гбайт
Продолжительность                        : 1 ч. 5 м.
Общий поток                              : 2362 Кбит/сек
Название фильма                          : Самурай Джек: Премьерный фильм / Samurai Jack: The Premiere Movie (2001) DVDRip-AVC 2xRUS, ENG, sub ENG
Дата кодирования                         : UTC 2014-07-25 08:37:47
Программа кодирования                    : mkvmerge v7.0.0 ('Where We Going') 32bit built on Jun  9 2014 15:08:34
Библиотека кодирования                   : libebml v1.3.0 + libmatroska v1.4.1
_STATISTICS_WRITING_APP                  : mkvmerge v7.0.0 ('Where We Going') 32bit built on Jun  9 2014 15:08:34
_STATISTICS_WRITING_DATE_UTC             : 2014-07-25 08:37:47
_STATISTICS_TAGS                         : BPS DURATION NUMBER_OF_FRAMES NUMBER_OF_BYTES
DURATION                                 : 01:02:13.890000000
NUMBER_OF_FRAMES                         : 304
NUMBER_OF_BYTES                          : 13107
Видео
Идентификатор                            : 1
Формат                                   : AVC
Формат/Информация                        : Advanced Video Codec
Профиль формата                          : High@L4.1
Параметр CABAC формата                   : Да
Параметр ReFrames формата                : 9 кадров
Идентификатор кодека                     : V_MPEG4/ISO/AVC
Продолжительность                        : 1 ч. 5 м.
Битрейт                                  : 1400 Кбит/сек
Ширина                                   : 720 пикселей
Высота                                   : 480 пикселей
Соотношение сторон                       : 4:3
Режим частоты кадров                     : Постоянный
Частота кадров                           : 23,976 кадра/сек
Стандарт вещания                         : NTSC
Цветовое пространство                    : YUV
Субдискретизация насыщенности            : 4:2:0
Битовая глубина                          : 8 бит
Тип развёртки                            : Прогрессивная
Бит/(Пиксели*Кадры)                      : 0.169
Размер потока                            : 639 Мбайт (57%)
Заголовок                                : DVDRip-AVC
Библиотека кодирования                   : x264 core 138 r2358 9e941d1
Настройки программы                      : cabac=1 / ref=9 / deblock=1:-1:-1 / analyse=0x3:0x133 / me=umh / subme=7 / psy=1 / psy_rd=1.00:0.00 / mixed_ref=1 / me_range=32 / chroma_me=1 / trellis=2 / 8x8dct=1 / cqm=0 / deadzone=21,11 / fast_pskip=1 / chroma_qp_offset=-2 / threads=3 / lookahead_threads=1 / sliced_threads=0 / nr=0 / decimate=1 / interlaced=0 / bluray_compat=0 / constrained_intra=0 / bframes=6 / b_pyramid=2 / b_adapt=2 / b_bias=0 / direct=3 / weightb=1 / open_gop=0 / weightp=2 / keyint=240 / keyint_min=23 / scenecut=40 / intra_refresh=0 / rc_lookahead=40 / rc=2pass / mbtree=1 / bitrate=1400 / ratetol=1.0 / qcomp=0.70 / qpmin=10 / qpmax=51 / qpstep=4 / cplxblur=20.0 / qblur=0.5 / ip_ratio=1.40 / aq=1:1.00
Язык                                     : English
Default                                  : Да
Forced                                   : Нет
_STATISTICS_WRITING_APP                  : mkvmerge v7.0.0 ('Where We Going') 32bit built on Jun  9 2014 15:08:34
_STATISTICS_WRITING_DATE_UTC             : 2014-07-25 08:37:47
_STATISTICS_TAGS                         : BPS DURATION NUMBER_OF_FRAMES NUMBER_OF_BYTES
DURATION                                 : 01:05:55.619000000
NUMBER_OF_FRAMES                         : 94840
NUMBER_OF_BYTES                          : 691855165
Аудио #1
Идентификатор                            : 2
Формат                                   : AC-3
Формат/Информация                        : Audio Coding 3
Расширение режима                        : CM (complete main)
Параметр Endianness формата              : Big
Идентификатор кодека                     : A_AC3
Продолжительность                        : 1 ч. 5 м.
Вид битрейта                             : Постоянный
Битрейт                                  : 192 Кбит/сек
Каналы                                   : 2 канала
Расположение каналов                     : Front: L R
Частота                                  : 48,0 КГц
Битовая глубина                          : 16 бит
Метод сжатия                             : С потерями
Размер потока                            : 90,5 Мбайт (8%)
Заголовок                                : Дубляж [Cartoon Network Russia]
Язык                                     : Russian
Default                                  : Да
Forced                                   : Нет
Аудио #2
Идентификатор                            : 3
Формат                                   : AC-3
Формат/Информация                        : Audio Coding 3
Расширение режима                        : CM (complete main)
Параметр Endianness формата              : Big
Идентификатор кодека                     : A_AC3
Продолжительность                        : 1 ч. 5 м.
Вид битрейта                             : Постоянный
Битрейт                                  : 384 Кбит/сек
Каналы                                   : 6 каналов
Расположение каналов                     : Front: L C R, Side: L R, LFE
Частота                                  : 48,0 КГц
Битовая глубина                          : 16 бит
Метод сжатия                             : С потерями
Размер потока                            : 181 Мбайт (16%)
Заголовок                                : Авторский одноголосый [Пётр Гланц]
Язык                                     : Russian
Default                                  : Нет
Forced                                   : Нет
Аудио #3
Идентификатор                            : 4
Формат                                   : AC-3
Формат/Информация                        : Audio Coding 3
Расширение режима                        : CM (complete main)
Параметр Endianness формата              : Big
Идентификатор кодека                     : A_AC3
Продолжительность                        : 1 ч. 5 м.
Вид битрейта                             : Постоянный
Битрейт                                  : 384 Кбит/сек
Каналы                                   : 6 каналов
Расположение каналов                     : Front: L C R, Side: L R, LFE
Частота                                  : 48,0 КГц
Битовая глубина                          : 16 бит
Метод сжатия                             : С потерями
Размер потока                            : 181 Мбайт (16%)
Заголовок                                : Оригинал
Язык                                     : English
Default                                  : Нет
Forced                                   : Нет
Текст
Идентификатор                            : 5
Формат                                   : UTF-8
Идентификатор кодека                     : S_TEXT/UTF8
Идентификатор кодека/Информация          : UTF-8 Plain Text
Язык                                     : English
Default                                  : Нет
Forced                                   : Нет

Скриншоты


-
0 человек читают эту тему: 0 пользователей, 0 скрытых пользователей, 0 гостей

Показать сообщения:    

Текущее время: 23-Авг 18:26

Часовой пояс: UTC - 1


Вы не можете начинать темы
Вы не можете отвечать на сообщения
Вы не можете редактировать свои сообщения
Вы не можете удалять свои сообщения
Вы не можете голосовать в опросах
Вы не можете прикреплять файлы к сообщениям
Вы не можете скачивать файлы

!ВНИМАНИЕ!
Сайт не предоставляет электронные версии произведений, а занимается лишь коллекционированием и каталогизацией ссылок, присылаемых и публикуемых на форуме нашими читателями. Если вы являетесь правообладателем какого-либо представленного материала и не желаете, чтобы ссылка на него находилась в нашем каталоге, свяжитесь с нами, и мы незамедлительно удалим ее. Файлы для обмена на трекере предоставлены пользователями сайта, и администрация не несет ответственности за их содержание. Просьба не заливать файлы, защищенные авторскими правами, а также файлы нелегального содержания!