Ивановский Торрент трекер
Яндекс.Погода
 

[Цитировать]
HUNTER

Самоучитель 1С Бухгалтерия 8.2 Только для Бухгалтера!-Год выпуска: 2012
Страна: Россия
Сайт производителя: http://Profbuh1c.ru
Тематика: финансы
Тип материала: Обучающее видео
Продолжительность: 06:54:36
Автор: Вячеслав Краснов
Язык: Русский
Субтитры: Отсутствуют-Описание: Видеокурс от профессионального бухгалтера , посмотрев который, вы научитесь работать в программе 1С Бухгалтерия 8.2.-Качество: DVDRip
Формат: MP4
Видео кодек: AVC
Аудио кодек: AAC
Видео: MPEG4 Video (H264) 1266x720 15fps 545kbps
Аудио: AAC 44100Hz stereo 192kbps-

Доп. информация

Вы бухгалтер или начинающий бухгалтер и Вам крайне важно освоить и обучиться работе в программе 1С: Бухгалтерия , но Вы в этом ничего не смыслите, вы не знаете с чего начать, либо знаете совсем мало, то Вы попали по адресу...
На диске представлено 6 курсов, которые составлены в таком порядке, чтобы пользователю было понятно как работать в программе. Уникальность курса состоит в том, что написан он только для бухгалтера . Ничего лишнего. Только ведение бухгалтерского учета.
Курсы составлены таким образом, чтобы бухгалтер , если по каким либо причинам забыл как проводить ту или иную хозяйственную операцию, смог просмотреть необходимый видеоурок и решить возникшую проблему на своем рабочем месте в кратчайшие сроки.

Содержание

Бух Краснов
Курс 1. Начало работы. Урок 1.(720p_H.264-AAC).mp4
Курс 1. Начало работы. Урок 2.(720p_H.264-AAC).mp4
Курс 1. Начало работы. Урок 3.(720p_H.264-AAC).mp4
Курс 1. Начало работы. Урок 4.(720p_H.264-AAC).mp4
Курс 2. Учётная политика. Урок 1.(720p_H.264-AAC).mp4
Курс 2. Учётная политика. Урок 10.(720p_H.264-AAC).mp4
Курс 2. Учётная политика. Урок 11.(720p_H.264-AAC).mp4
Курс 2. Учётная политика. Урок 12.(720p_H.264-AAC).mp4
Курс 2. Учётная политика. Урок 13.(720p_H.264-AAC).mp4
Курс 2. Учётная политика. Урок 2.(720p_H.264-AAC).mp4
Курс 2. Учётная политика. Урок 3.(720p_H.264-AAC).mp4
Курс 2. Учётная политика. Урок 4.(720p_H.264-AAC).mp4
Курс 2. Учётная политика. Урок 5.(720p_H.264-AAC).mp4
Курс 2. Учётная политика. Урок 6.(720p_H.264-AAC).mp4
Курс 2. Учётная политика. Урок 7.(720p_H.264-AAC).mp4
Курс 2. Учётная политика. Урок 8.(720p_H.264-AAC).mp4
Курс 2. Учётная политика. Урок 9.(720p_H.264-AAC).mp4
Курс 3. Ввод сведений. Урок 1.(720p_H.264-AAC).mp4
Курс 3. Ввод сведений. Урок 2.(720p_H.264-AAC).mp4
Курс 3. Ввод сведений. Урок 3.(720p_H.264-AAC).mp4
Курс 3. Ввод сведений. Урок 4.(720p_H.264-AAC).mp4
Курс 3. Ввод сведений. Урок 5.(720p_H.264-AAC).mp4
Курс 3. Ввод сведений. Урок 6.(720p_H.264-AAC).mp4
Курс 3. Ввод сведений. Урок 7.(720p_H.264-AAC).mp4
Курс 4. Приём, увольнение сотрудников. Урок 1.(720p_H.264-AAC).mp4
Курс 4. Приём, увольнение сотрудников. Урок 2.(720p_H.264-AAC).mp4
Курс 4. Приём, увольнение сотрудников. Урок 3.(720p_H.264-AAC).mp4
Курс 5. Хозяйственные операции. Урок 1.(720p_H.264-AAC).mp4
Курс 5. Хозяйственные операции. Урок 10.(720p_H.264-AAC).mp4
Курс 5. Хозяйственные операции. Урок 11.(720p_H.264-AAC).mp4
Курс 5. Хозяйственные операции. Урок 12.(720p_H.264-AAC).mp4
Курс 5. Хозяйственные операции. Урок 13.(720p_H.264-AAC).mp4
Курс 5. Хозяйственные операции. Урок 14.(720p_H.264-AAC).mp4
Курс 5. Хозяйственные операции. Урок 15.(720p_H.264-AAC).mp4
Курс 5. Хозяйственные операции. Урок 16.(720p_H.264-AAC).mp4
Курс 5. Хозяйственные операции. Урок 17.(720p_H.264-AAC).mp4
Курс 5. Хозяйственные операции. Урок 18.(720p_H.264-AAC).mp4
Курс 5. Хозяйственные операции. Урок 19.(720p_H.264-AAC).mp4
Курс 5. Хозяйственные операции. Урок 2.(720p_H.264-AAC).mp4
Курс 5. Хозяйственные операции. Урок 20.(720p_H.264-AAC).mp4
Курс 5. Хозяйственные операции. Урок 21.(720p_H.264-AAC).mp4
Курс 5. Хозяйственные операции. Урок 22.(720p_H.264-AAC).mp4
Курс 5. Хозяйственные операции. Урок 23.(720p_H.264-AAC).mp4
Курс 5. Хозяйственные операции. Урок 24.(720p_H.264-AAC).mp4
Курс 5. Хозяйственные операции. Урок 25.(720p_H.264-AAC).mp4
Курс 5. Хозяйственные операции. Урок 26.(720p_H.264-AAC).mp4
Курс 5. Хозяйственные операции. Урок 27.(720p_H.264-AAC).mp4
Курс 5. Хозяйственные операции. Урок 3.(720p_H.264-AAC).mp4
Курс 5. Хозяйственные операции. Урок 4.(720p_H.264-AAC).mp4
Курс 5. Хозяйственные операции. Урок 5.(720p_H.264-AAC).mp4
Курс 5. Хозяйственные операции. Урок 6.(720p_H.264-AAC).mp4
Курс 5. Хозяйственные операции. Урок 7.(720p_H.264-AAC).mp4
Курс 5. Хозяйственные операции. Урок 8.(720p_H.264-AAC).mp4
Курс 5. Хозяйственные операции. Урок 9.(720p_H.264-AAC).mp4
Курс 6. Закрытие месяца. Урок 1.(720p_H.264-AAC).mp4
Курс 6. Закрытие месяца. Урок 2.(720p_H.264-AAC).mp4
Курс 6. Закрытие месяца. Урок 3.(720p_H.264-AAC).mp4
Курс 6. Закрытие месяца. Урок 4.(720p_H.264-AAC).mp4
Курс 6. Закрытие месяца. Урок 5.(720p_H.264-AAC).mp4
Курс 6. Закрытие месяца. Урок 6.(720p_H.264-AAC).mp4

MediaInfo

Код: copyText_writeLink('this.parentNode.parentNode.nextSibling.nextSibling'); General
Complete name : E:\Уроки\Бух Краснов\Курс 1. Начало работы. Урок 1.(720p_H.264-AAC).mp4
Format : MPEG-4
Format profile : Base Media / Version 2
Codec ID : mp42
File size : 11.8 MiB
Duration : 2mn 14s
Overall bit rate mode : Variable
Overall bit rate : 739 Kbps
Encoded date : UTC 2012-07-31 15:44:47
Tagged date : UTC 2012-07-31 15:44:47
gsst : 0
gstd : 134488
gssd : B4A7DA303HH1348923875098337
gshh : o-o---preferred---sn-n8v7ln7l---v23---lscache2.c.youtube.com
Video
ID : 1
Format : AVC
Format/Info : Advanced Video Codec
Format profile : High@L3.1
Format settings, CABAC : Yes
Format settings, ReFrames : 1 frame
Codec ID : avc1
Codec ID/Info : Advanced Video Coding
Duration : 2mn 14s
Bit rate : 545 Kbps
Maximum bit rate : 4 974 Kbps
Width : 1 266 pixels
Height : 720 pixels
Display aspect ratio : 16:9
Frame rate mode : Constant
Frame rate : 15.000 fps
Color space : YUV
Chroma subsampling : 4:2:0
Bit depth : 8 bits
Scan type : Progressive
Bits/(Pixel*Frame) : 0.040
Stream size : 8.73 MiB (74%)
Tagged date : UTC 2012-07-31 15:44:47
Audio
ID : 2
Format : AAC
Format/Info : Advanced Audio Codec
Format profile : LC
Codec ID : 40
Duration : 2mn 14s
Bit rate mode : Variable
Bit rate : 192 Kbps
Maximum bit rate : 201 Kbps
Channel(s) : 2 channels
Channel positions : Front: L R
Sampling rate : 44.1 KHz
Compression mode : Lossy
Stream size : 3.08 MiB (26%)
Title : IsoMedia File Produced by Google, 5-11-2011
Encoded date : UTC 2012-07-31 15:44:47
Tagged date : UTC 2012-07-31 15:44:47

Скриншоты

-


Показать сообщения:    

Текущее время: 13-Дек 15:19

Часовой пояс: UTC ± 0


Вы не можете начинать темы
Вы не можете отвечать на сообщения
Вы не можете редактировать свои сообщения
Вы не можете удалять свои сообщения
Вы не можете голосовать в опросах
Вы не можете прикреплять файлы к сообщениям
Вы не можете скачивать файлы

!ВНИМАНИЕ!
Сайт не предоставляет электронные версии произведений, а занимается лишь коллекционированием и каталогизацией ссылок, присылаемых и публикуемых на форуме нашими читателями. Если вы являетесь правообладателем какого-либо представленного материала и не желаете, чтобы ссылка на него находилась в нашем каталоге, свяжитесь с нами, и мы незамедлительно удалим ее. Файлы для обмена на трекере предоставлены пользователями сайта, и администрация не несет ответственности за их содержание. Просьба не заливать файлы, защищенные авторскими правами, а также файлы нелегального содержания!