Важное объявление!
У Нас Все раздачи мультитрекерные, при нуле пиров в релизах, можете смело вставать на закачку!
 
Автор Сообщение

HUNTER

Стаж:
4 года 6 месяцев
Сообщений:
60959

Репутация: 101

[+] [-]
Вне форума [Профиль] [ЛС]

Самооборона для юных-

Год выпуска: 2006
Страна: Россия
Сайт производителя: http://www.evrikafilm.ru
Тематика: Развивающее видео для детей
Тип материала: обучающее видео-Продолжительность: 00:58:35
Автор: М.Трофименко-Язык: Русский
Субтитры: нет-Описание: Общеизвестно, что дети бывают жестоки. Конфликты, переходящие в драку - вещь довольно распространенная в детском коллективе. Нередко давление со стороны более сильного сверстника приобретает форму откровенного издевательства. Если ребенок не готов физически противостоять сопернику, дело может закончиться серьезной психологической травмой. Простейшие техники защиты и нападения, азами которых делится в программе инструктор, помогут решить данную проблему.-Качество: DVD5
Формат: vob
Видео кодек: DVD Video
Аудио кодек: PCM
Видео: MPEG2 Video 720x576 (4:3) 25fps 8000kbps
Аудио: LPCM 48000Hz stereo 1536kbps-

MediaInfo

Код: copyText_writeLink('this.parentNode.parentNode.nextSibling.nextSibling'); General
Complete name : D:\обучение 25,12\Самооборона для юных\VIDEO_TS\VTS_01_2.VOB
Format : MPEG-PS
File size : 1 000 MiB
Duration : 14mn 47s
Overall bit rate mode : Variable
Overall bit rate : 9 456 Kbps
Video
ID : 224 (0xE0)
Format : MPEG Video
Format version : Version 2
Format profile : Main@Main
Format settings, BVOP : Yes
Format settings, Matrix : Default
Format settings, GOP : M=3, N=12
Duration : 14mn 46s
Bit rate mode : Variable
Bit rate : 7 732 Kbps
Maximum bit rate : 8 000 Kbps
Width : 720 pixels
Height : 576 pixels
Display aspect ratio : 4:3
Frame rate : 25.000 fps
Standard : PAL
Color space : YUV
Chroma subsampling : 4:2:0
Bit depth : 8 bits
Scan type : Interlaced
Scan order : Bottom Field First
Compression mode : Lossy
Bits/(Pixel*Frame) : 0.746
Stream size : 818 MiB (82%)
Audio
ID : 189 (0xBD)-160 (0xA0)
Format : PCM
Format settings, Endianness : Big
Format settings, Sign : Signed
Muxing mode : DVD-Video
Duration : 14mn 47s
Bit rate mode : Constant
Bit rate : 1 536 Kbps
Channel(s) : 2 channels
Sampling rate : 48.0 KHz
Bit depth : 16 bits
Delay relative to video : -480ms
Stream size : 162 MiB (16%)
Menu
- -

_________________
Показать сообщения:    

Текущее время: Сегодня 12:13

Часовой пояс: GMT



Вы не можете начинать темы
Вы не можете отвечать на сообщения
Вы не можете редактировать свои сообщения
Вы не можете удалять свои сообщения
Вы не можете голосовать в опросах
Вы не можете прикреплять файлы к сообщениям
Вы не можете скачивать файлы
Наши партнеры: интернет магазин Ивановского трикотажа textilla.ru