Ивановский Торрент трекер
Яндекс.Погода
 

[Цитировать]
HUNTER

Самолеты / Planes
Страна: США
Жанр: мультфильм, комедия, приключения, семейный
Год выпуска: 2013
Продолжительность: 01:31:35
Перевод: Профессиональный (дублированный) | Лицензия
Cубтитры: нет
Оригинальная аудиодорожка: нет
Режиссер: Клэй Холл / Klay Hall
Роли озвучивали: Дейн Кук, Стейси Кич, Брэд Гэррет, Тери Хэтчер, Джулия Луис-Дрейфус, Приянка Чопра, Джон Клиз, Седрик «Развлекатель», Карлос Аласраки, Роджер Крэйг Смит
Описание: Дасти Полейполе — скромный трудяга-самолет, работающий сельскохозяйственным распылителем на заштатном провинциальном аэродроме. Однако это не мешает ему мечтать о том, чтобы однажды принять участие в кругосветных гонках самых быстрых самолетов. Одна незадача — Дасти панически боится большой высоты. Поэтому, когда волею случая он все же попадает в число участников отборочного тура воздушных соревнований, ему приходится искать помощи у ветерана военно-морской авиации, отставного истребителя Шкипера. С помощью мудрого наставника Дасти сможет преодолеть свои слабости и бросить вызов надменному чемпиону Рипслингеру, а весь мир будет с замиранием сердца следить за гонкой в небесах!..

Сэмпл: http://www.sendspace.com/file/bbnhnj
Качество видео: HDRip
Формат видео: AVI
Видео: XviD 73, 688x384 (16:9), 23.976 fps, 1802 Kbps
Аудио: AC-3, 48.0 kHz, 448 Kbps, 5.1 ch, CBR
Релиз от: Scarabey
MediaInfo
Код:
General
Complete name                            : Planes.2013.D.HDRip.avi
Format                                   : AVI
Format/Info                              : Audio Video Interleave
File size                                : 1.45 GiB
Duration                                 : 1h 31mn
Overall bit rate                         : 2 259 Kbps
Writing application                      : VirtualDubMod 1.5.10.2 (build 2540/release)
Writing library                          : VirtualDubMod build 2540/release
Video
ID                                       : 0
Format                                   : MPEG-4 Visual
Format profile                           : Advanced Simple@L5
Format settings, BVOP                    : 1
Format settings, QPel                    : No
Format settings, GMC                     : No warppoints
Format settings, Matrix                  : Custom
Codec ID                                 : XVID
Codec ID/Hint                            : XviD
Duration                                 : 1h 31mn
Bit rate                                 : 1 802 Kbps
Width                                    : 688 pixels
Height                                   : 384 pixels
Display aspect ratio                     : 16:9
Frame rate                               : 23.976 fps
Color space                              : YUV
Chroma subsampling                       : 4:2:0
Bit depth                                : 8 bits
Scan type                                : Progressive
Compression mode                         : Lossy
Bits/(Pixel*Frame)                       : 0.284
Stream size                              : 1.15 GiB (80%)
Writing library                          : XviD 73
Audio
ID                                       : 1
Format                                   : AC-3
Format/Info                              : Audio Coding 3
Mode extension                           : CM (complete main)
Format settings, Endianness              : Big
Codec ID                                 : 2000
Duration                                 : 1h 31mn
Bit rate mode                            : Constant
Bit rate                                 : 448 Kbps
Channel(s)                               : 6 channels
Channel positions                        : Front: L C R, Side: L R, LFE
Sampling rate                            : 48.0 KHz
Bit depth                                : 16 bits
Compression mode                         : Lossy
Stream size                              : 293 MiB (20%)
Alignment                                : Split accross interleaves
Interleave, duration                     : 42 ms (1.00 video frame)
Interleave, preload duration             : 500 ms
Скриншот c названием фильмаСкриншоты
0 человек читают эту тему: 0 пользователей, 0 скрытых пользователей, 0 гостей

Показать сообщения:    

Текущее время: 23-Авг 01:15

Часовой пояс: UTC - 1


Вы не можете начинать темы
Вы не можете отвечать на сообщения
Вы не можете редактировать свои сообщения
Вы не можете удалять свои сообщения
Вы не можете голосовать в опросах
Вы не можете прикреплять файлы к сообщениям
Вы не можете скачивать файлы

!ВНИМАНИЕ!
Сайт не предоставляет электронные версии произведений, а занимается лишь коллекционированием и каталогизацией ссылок, присылаемых и публикуемых на форуме нашими читателями. Если вы являетесь правообладателем какого-либо представленного материала и не желаете, чтобы ссылка на него находилась в нашем каталоге, свяжитесь с нами, и мы незамедлительно удалим ее. Файлы для обмена на трекере предоставлены пользователями сайта, и администрация не несет ответственности за их содержание. Просьба не заливать файлы, защищенные авторскими правами, а также файлы нелегального содержания!