Важное объявление!
У Нас Все раздачи мультитрекерные, при нуле пиров в релизах, можете смело вставать на закачку!
Статистика раздачи
Размер:     |    Зарегистрирован:     |    Скачан:     |   
Нет
 
     
 
 
Автор Сообщение

HUNTER

Стаж:
5 лет 1 месяц
Сообщений:
68429

Репутация: 101

[+] [-]
Вне форума [Профиль] [ЛС]

Самолеты / Planes
Страна: США
Жанр: мультфильм, комедия, приключения, семейный
Год выпуска: 2013
Продолжительность: 01:31:35
Перевод: Профессиональный (дублированный) | Лицензия
Cубтитры: нет
Оригинальная аудиодорожка: нет
Режиссер: Клэй Холл / Klay Hall
Роли озвучивали: Дейн Кук, Стейси Кич, Брэд Гэррет, Тери Хэтчер, Джулия Луис-Дрейфус, Приянка Чопра, Джон Клиз, Седрик «Развлекатель», Карлос Аласраки, Роджер Крэйг Смит
Описание: Дасти Полейполе — скромный трудяга-самолет, работающий сельскохозяйственным распылителем на заштатном провинциальном аэродроме. Однако это не мешает ему мечтать о том, чтобы однажды принять участие в кругосветных гонках самых быстрых самолетов. Одна незадача — Дасти панически боится большой высоты. Поэтому, когда волею случая он все же попадает в число участников отборочного тура воздушных соревнований, ему приходится искать помощи у ветерана военно-морской авиации, отставного истребителя Шкипера. С помощью мудрого наставника Дасти сможет преодолеть свои слабости и бросить вызов надменному чемпиону Рипслингеру, а весь мир будет с замиранием сердца следить за гонкой в небесах!..

Сэмпл: http://www.sendspace.com/file/s2b2ev
Качество видео: HDRip
Формат видео: AVI
Видео: XviD 73, 624x352 (16:9), 23.976 fps, 1001 Kbps
Аудио: MP3, 48.0 kHz, 128 Kbps, 2 ch, CBR
Релиз от: Scarabey

MediaInfo

Код:
General
Complete name                            : Planes.2013.D.HDRip.avi
Format                                   : AVI
Format/Info                              : Audio Video Interleave
File size                                : 745 MiB
Duration                                 : 1h 31mn
Overall bit rate                         : 1 138 Kbps
Writing application                      : VirtualDubMod 1.5.10.2 (build 2540/release)
Writing library                          : VirtualDubMod build 2540/release
Video
ID                                       : 0
Format                                   : MPEG-4 Visual
Format profile                           : Advanced Simple@L5
Format settings, BVOP                    : 1
Format settings, QPel                    : No
Format settings, GMC                     : No warppoints
Format settings, Matrix                  : Custom
Codec ID                                 : XVID
Codec ID/Hint                            : XviD
Duration                                 : 1h 31mn
Bit rate                                 : 1 001 Kbps
Width                                    : 624 pixels
Height                                   : 352 pixels
Display aspect ratio                     : 16:9
Frame rate                               : 23.976 fps
Color space                              : YUV
Chroma subsampling                       : 4:2:0
Bit depth                                : 8 bits
Scan type                                : Progressive
Compression mode                         : Lossy
Bits/(Pixel*Frame)                       : 0.190
Stream size                              : 655 MiB (88%)
Writing library                          : XviD 73
Audio
ID                                       : 1
Format                                   : MPEG Audio
Format version                           : Version 1
Format profile                           : Layer 3
Codec ID                                 : 55
Codec ID/Hint                            : MP3
Duration                                 : 1h 31mn
Bit rate mode                            : Constant
Bit rate                                 : 128 Kbps
Channel(s)                               : 2 channels
Sampling rate                            : 48.0 KHz
Compression mode                         : Lossy
Stream size                              : 83.9 MiB (11%)
Alignment                                : Aligned on interleaves
Interleave, duration                     : 42 ms (1.00 video frame)
Interleave, preload duration             : 504 ms
Writing library                          : LAME3.99r
Encoding settings                        : -m s -V 4 -q 2 -lowpass 17 -b 128

Скриншот c названием фильма

Скриншоты


_________________
Показать сообщения:    

Текущее время: Сегодня 07:37

Часовой пояс: GMT



Вы не можете начинать темы
Вы не можете отвечать на сообщения
Вы не можете редактировать свои сообщения
Вы не можете удалять свои сообщения
Вы не можете голосовать в опросах
Вы не можете прикреплять файлы к сообщениям
Вы не можете скачивать файлы