Важное объявление!
У Нас Все раздачи мультитрекерные, при нуле пиров в релизах, можете смело вставать на закачку!
Статистика раздачи
Размер:     |    Зарегистрирован:     |    Скачан:     |   
Нет
 
     
 
 
Автор Сообщение

HUNTER

Стаж:
5 лет
Сообщений:
67947

Репутация: 101

[+] [-]
Вне форума [Профиль] [ЛС]

| Все релизы мультфильма || BDRip 1080p, 7.74 GB |- P R E S E N T SСамолеты / Planes-
Страна: США
Жанр: мультфильм, приключения, комедия, семейный
Продолжительность: 01:31:35
Год выпуска: 2013
Перевод: Профессиональный (полное дублирование)
Субтитры: есть-Режиссёр: Клэй Холл / Klay Hall
Роли озвучивали: Дейн Кук, Стейси Кич, Брэд Гэррет, Тери Хэтчер, Джулия Луис-Дрейфус, Приянка Чопра, Джон Клиз, Седрик "Развлекатель", Карлос Алазраки, Роджер Крэйг Смит, Энтони Эдвардс, Вэл Килмер, Синбад, Гэбриел Иглесиас, Брент Мусбургер...
Роли дублировали: Константин Крюков, Нонна Гришаева, Равшана Куркова, Алексей Чумаков, Александр Ноткин, Александр Балакирев, Валерий Смекалов и др.- | | - Рекомендуется присутствие родителей-Описание: Дасти Полейполе - скромный трудяга-самолет, работающий сельскохозяйственным распылителем на заштатном провинциальном аэродроме. Однако это не мешает ему мечтать о том, чтобы однажды принять участие в кругосветных гонках самых быстрых самолетов. Одна незадача - Дасти панически боится большой высоты. Поэтому, когда волею случая он все же попадает в число участников отборочного тура воздушных соревнований, ему приходится искать помощи у ветерана военно-морской авиации, отставного истребителя Шкипера. С помощью мудрого наставника Дасти сможет преодолеть свои слабости и бросить вызов надменному чемпиону Рипслингеру, а весь мир будет с замиранием сердца следить за гонкой в небесах!...-Доп. информация: BDRip 1080p (1.778:1) сделан с Blu-Ray диска Planes 2013 1080p Blu-ray AVC DTS-HD MA 7.1-NiP (Локализованный видеоряд).
Отдельное спасибо xfiles за подготовку субтитров.
-Сэмпл/Sample (67.13 MB, 1 минута)-Качество: BDRip 1080p
Формат: MKV
Видео: 1920x1080 (1.778:1), 23,976 fps, ~9945 kbps avg, 0.200 bit/pixel
Аудио #1: Русский, AC3, 6 ch, 48 kHz, 640 kbps - Дубляж | BD CEE
Аудио #2: English, DTS / 5.1 / 48 kHz / 1509 kbps / 24-bit - Original
Субтитры: Русские (полные, форсированные), English (Full, SDH)
Навигация по главам: есть (20 именованных глав)

MediaInfo / x264Log

x264Log
raw [info]: 1920x1080p 1:1 @ 24000/1001 fps (cfr)x264 [info]: using SAR=1/1x264 [info]: using cpu capabilities: MMX2 SSE2Fast SSSE3 SSE4.2 AVX XOP FMA4 FMA3 LZCNT BMI1x264 [info]: profile High, level 4.1x264 [info]: frame I:1052 Avg QP:11.97 size:355335 PSNR Mean Y:51.49 U:55.96 V:56.12 Avg:52.25 Global:51.79x264 [info]: frame P:43085 Avg QP:14.35 size: 86587 PSNR Mean Y:49.19 U:55.17 V:55.48 Avg:49.98 Global:49.37x264 [info]: frame B:87617 Avg QP:17.09 size: 31121 PSNR Mean Y:48.39 U:54.56 V:54.88 Avg:49.21 Global:48.58x264 [info]: consecutive B-frames: 5.1% 5.4% 55.9% 15.9% 8.3% 7.6% 0.7% 0.3% 0.3% 0.1% 0.1% 0.1% 0.3%x264 [info]: mb I I16..4: 24.3% 51.3% 24.4%x264 [info]: mb P I16..4: 4.4% 15.1% 3.3% P16..4: 28.5% 19.0% 7.6% 1.8% 0.2% skip:20.2%x264 [info]: mb B I16..4: 1.0% 3.2% 0.4% B16..8: 28.3% 13.9% 2.5% direct: 6.7% skip:44.1% L0:35.4% L1:46.2% BI:18.4%x264 [info]: 8x8 transform intra:66.2% inter:43.7%x264 [info]: coded y,uvDC,uvAC intra: 81.5% 87.2% 69.6% inter: 20.7% 20.6% 6.2%x264 [info]: i16 v,h,dc,p: 10% 14% 26% 49%x264 [info]: i8 v,h,dc,ddl,ddr,vr,hd,vl,hu: 11% 19% 17% 7% 8% 7% 10% 8% 14%x264 [info]: i4 v,h,dc,ddl,ddr,vr,hd,vl,hu: 17% 19% 22% 5% 8% 7% 8% 6% 9%x264 [info]: i8c dc,h,v,p: 43% 32% 14% 12%x264 [info]: Weighted P-Frames: Y:2.6% UV:2.1%x264 [info]: ref P L0: 70.1% 9.4% 12.6% 5.4% 2.5% 0.0%x264 [info]: ref B L0: 82.7% 15.0% 2.3%x264 [info]: ref B L1: 88.3% 11.7%x264 [info]: SSIM Mean Y:0.9916371 (20.776db)x264 [info]: PSNR Mean Y:48.675 U:54.772 V:55.090 Avg:49.484 Global:48.845 kb/s:9944.77encoded 131754 frames, 4.25 fps, 9944.77 kb/s
GeneralUnique ID : 190373138427961927002643485560386018677 (0x8F388864F5F3E0F89CF2ECF6820EDD75)Complete name : Planes.2013.Rus.Video.BDRip.1080p.dfcbit.mkvFormat : MatroskaFormat version : Version 2File size : 7.74 GiBDuration : 1h 31mnOverall bit rate : 12.1 MbpsEncoded date : UTC 2014-07-16 18:03:33Writing application : mkvmerge v4.0.0 ('The Stars were mine') built on Jun 6 2010 16:18:42Writing library : libebml v1.0.0 + libmatroska v1.0.0
VideoID : 1Format : AVCFormat/Info : Advanced Video CodecFormat profile : High@L4.1Format settings, CABAC : YesFormat settings, ReFrames : 4 framesCodec ID : V_MPEG4/ISO/AVCDuration : 1h 31mnBit rate : 9 945 KbpsWidth : 1 920 pixelsHeight : 1 080 pixelsDisplay aspect ratio : 16:9Frame rate mode : ConstantFrame rate : 23.976 fpsColor space : YUVChroma subsampling : 4:2:0Bit depth : 8 bitsScan type : ProgressiveBits/(Pixel*Frame) : 0.200Stream size : 6.36 GiB (80%)Title : NTSC, 1920x1080 (1.778:1), BDRip 1080p - tRuAVC & Multfilmy [DFCbit]Writing library : x264 core 142 r2431kMod ac76440Encoding settings : cabac=1 / ref=4 / deblock=1:-2:-1 / analyse=0x3:0x133 / me=umh / subme=11 / psy=1 / fade_compensate=0.00 / psy_rd=0.63:0.00 / mixed_ref=1 / me_range=32 / chroma_me=1 / trellis=2 / 8x8dct=1 / cqm=0 / deadzone=21,11 / fast_pskip=0 / chroma_qp_offset=-2 / threads=12 / lookahead_threads=3 / sliced_threads=0 / nr=0 / decimate=1 / interlaced=0 / bluray_compat=0 / constrained_intra=0 / fgo=0 / bframes=12 / b_pyramid=2 / b_adapt=2 / b_bias=0 / direct=1 / weightb=1 / open_gop=0 / weightp=2 / keyint=250 / keyint_min=23 / scenecut=40 / intra_refresh=0 / rc_lookahead=70 / rc=2pass / mbtree=0 / bitrate=9945 / ratetol=1.0 / qcomp=0.81 / qpmin=0 / qpmax=69 / qpstep=4 / cplxblur=20.0 / qblur=0.5 / vbv_maxrate=50000 / vbv_bufsize=62500 / nal_hrd=none / filler=0 / ip_ratio=1.40 / pb_ratio=1.30 / aq=3:0.90Language : RussianDefault : YesForced : NoColor primaries : BT.709Transfer characteristics : BT.709Matrix coefficients : BT.709
Audio #1ID : 2Format : AC-3Format/Info : Audio Coding 3Mode extension : CM (complete main)Format settings, Endianness : BigCodec ID : A_AC3Duration : 1h 31mnBit rate mode : ConstantBit rate : 640 KbpsChannel(s) : 6 channelsChannel positions : Front: L C R, Side: L R, LFESampling rate : 48.0 KHzBit depth : 16 bitsCompression mode : LossyStream size : 419 MiB (5%)Title : AC3, 6 ch, 48 kHz, 640 kbps - Дубляж | BD CEELanguage : RussianDefault : YesForced : No
Audio #2ID : 3Format : DTSFormat/Info : Digital Theater SystemsMode : 16Format settings, Endianness : BigCodec ID : A_DTSDuration : 1h 31mnBit rate mode : ConstantBit rate : 1 509 KbpsChannel(s) : 6 channelsChannel positions : Front: L C R, Side: L R, LFESampling rate : 48.0 KHzBit depth : 24 bitsCompression mode : LossyStream size : 989 MiB (12%)Title : DTS / 5.1 / 48 kHz / 1509 kbps / 24-bit - OriginalLanguage : EnglishDefault : NoForced : No
Text #1ID : 4Format : UTF-8Codec ID : S_TEXT/UTF8Codec ID/Info : UTF-8 Plain TextTitle : SRT, ПолныеLanguage : RussianDefault : NoForced : No
Text #2ID : 5Format : UTF-8Codec ID : S_TEXT/UTF8Codec ID/Info : UTF-8 Plain TextTitle : SRT, ФорсированныеLanguage : RussianDefault : NoForced : No
Text #3ID : 6Format : UTF-8Codec ID : S_TEXT/UTF8Codec ID/Info : UTF-8 Plain TextTitle : SRT, FullLanguage : EnglishDefault : NoForced : No
Text #4ID : 7Format : UTF-8Codec ID : S_TEXT/UTF8Codec ID/Info : UTF-8 Plain TextTitle : SRT, (SDH)Language : EnglishDefault : NoForced : No
Menu00:00:00.000 : ru:1. Не просто кукурузник!00:04:41.990 : ru:2. Гонки - не для тебя00:07:23.234 : ru:3. Шкипер00:09:04.294 : ru:4. Гонка со временем00:14:38.085 : ru:5. Дасти в списке00:17:30.549 : ru:6. Тренировка со Шкипером00:24:58.872 : ru:7. Знакомство с участниками00:30:10.767 : ru:8. Гонка начинается00:36:28.186 : ru:9. Подмога00:40:37.518 : ru:10. Дасти выходит вперёд00:42:51.193 : ru:11. План действий00:48:07.801 : ru:12. Стальная лента00:51:37.802 : ru:13. Машина любви00:56:22.378 : ru:14. Над океаном01:00:06.144 : ru:15. Правда о Шкипере01:01:59.924 : ru:16. Падение Дасти01:07:05.312 : ru:17. Так поступают друзья01:10:13.041 : ru:18. Дасти снова в деле01:12:27.134 : ru:19. Последний этап01:16:26.915 : ru:20. В строю

Скриншоты

Скриншот с названием мультфильма / Локализация

--BDRip 1080p


Source Blu-Ray

Обсуждение релизов в AVC формате || Свежие AVC рипы

_________________
Показать сообщения:    

Текущее время: Сегодня 08:49

Часовой пояс: GMT



Вы не можете начинать темы
Вы не можете отвечать на сообщения
Вы не можете редактировать свои сообщения
Вы не можете удалять свои сообщения
Вы не можете голосовать в опросах
Вы не можете прикреплять файлы к сообщениям
Вы не можете скачивать файлы