Ивановский Торрент трекер
Яндекс.Погода
Статистика раздачи
Размер:  5.54 GB   |    Зарегистрирован:  2 года   |    Скачан:  0 раз

Полного источника не было: Никогда

 
     
 
 
 

[Цитировать]
HUNTER

Самое главное
Страна: Россия
Студия: ООО "Тесей Продакшн", "МегаФильм"
Жанр: мелодрама
Год выпуска: 2015
Продолжительность: 01:33:30
Перевод: Не требуется
Cубтитры: нет
Оригинальная аудиодорожка: русский
Режиссер: Александр Ефремов
В ролях: Олеся Грибок, Борис Хвошнянский, Алёна Ивченко, Павел Яскевич, Иван Стрельцов, Юлианна Михневич, Тамара Миронова, Полина Стефанович, Алексей Юцкевич
Описание: Главная героиня Даша живет в небольшом городе вместе с бабушкой. Родных, кроме старенькой бабушки, у Даши нет — мама умерла, а отца девушка никогда не знала и считала погибшим. Но однажды бабушка решает открыть Дарье тайну ее рождения — ее отец жив и живет в Москве, не подозревая, что у него есть взрослая дочь. Даша решает поехать в столицу и найти своего папу. Им оказывается импозантный мужчина Владимир Бестужев — большой любитель женщин.
А самое главное — он, кажется, вовсе не рад тому, что Даша — его дочь.

Кинопоиск
Sample
Тип релиза: HDTV 1080i
Контейнер: TS
Видео: MPEG4 AVC Video, H264, 16:9, 1920x1080, 25 fps, 7867 kbps
Аудио: Russian (MP2, 2 ch, 192 kbps, 16 bits, 48.0 KHz) - оригинал

MediaInfo

General
ID : 1 (0x1)
Complete name : L:\Самое главное HDTV 1080i.ts
Format : MPEG-TS
File size : 5.54 GiB
Duration : 1h 33mn
Overall bit rate mode : Variable
Overall bit rate : 8 480 Kbps
Video
ID : 2911 (0xB5F)
Menu ID : 1009 (0x3F1)
Format : AVC
Format/Info : Advanced Video Codec
Format profile : High@L4.0
Format settings, CABAC : Yes
Format settings, ReFrames : 4 frames
Codec ID : 27
Duration : 1h 33mn
Bit rate : 7 867 Kbps
Width : 1 920 pixels
Height : 1 080 pixels
Display aspect ratio : 16:9
Frame rate : 25.000 fps
Color space : YUV
Chroma subsampling : 4:2:0
Bit depth : 8 bits
Scan type : MBAFF
Bits/(Pixel*Frame) : 0.152
Stream size : 5.14 GiB (93%)
Audio
ID : 2912 (0xB60)
Menu ID : 1009 (0x3F1)
Format : MPEG Audio
Format version : Version 1
Format profile : Layer 2
Codec ID : 3
Duration : 1h 33mn
Bit rate mode : Constant
Bit rate : 192 Kbps
Channel count : 2 channels
Sampling rate : 48.0 KHz
Compression mode : Lossy
Stream size : 128 MiB (2%)
Language : Russian

Скриншоты

[iv-torrents.ru].t51812.torrent
Торрент: Зарегистрирован [ 2015-12-05 02:21 ] · 15AADD8C90E4DCCABE7B0BBAECA1B86303BB62F3

Скачать .torrent

Скачать

28 KB

Статус: проверено
Скачан: 0 раз
Размер: 5.54 GB
terms.php


Показать сообщения:    

Текущее время: 15-Дек 23:45

Часовой пояс: UTC ± 0


Вы не можете начинать темы
Вы не можете отвечать на сообщения
Вы не можете редактировать свои сообщения
Вы не можете удалять свои сообщения
Вы не можете голосовать в опросах
Вы не можете прикреплять файлы к сообщениям
Вы можете скачивать файлы

!ВНИМАНИЕ!
Сайт не предоставляет электронные версии произведений, а занимается лишь коллекционированием и каталогизацией ссылок, присылаемых и публикуемых на форуме нашими читателями. Если вы являетесь правообладателем какого-либо представленного материала и не желаете, чтобы ссылка на него находилась в нашем каталоге, свяжитесь с нами, и мы незамедлительно удалим ее. Файлы для обмена на трекере предоставлены пользователями сайта, и администрация не несет ответственности за их содержание. Просьба не заливать файлы, защищенные авторскими правами, а также файлы нелегального содержания!