Важное объявление!
У Нас Все раздачи мультитрекерные, при нуле пиров в релизах, можете смело вставать на закачку!
 
Автор Сообщение

Vanya_o3

[Профиль] [ЛС]

Самая обаятельная и привлекательная
Жанр: комедия, мелодрама
Год выпуска: 1985
Продолжительность: 01:20:18
Навигация по главам: есть
Субтитры: нет
Режиссёр: Геральд Бежанов
В ролях: Ирина Муравьева (Надя Клюева), Татьяна Васильева (Сусанна), Александр Абдулов (Володя Смирнов), Леонид Куравлев (Миша Дятлов), Михаил Кокшенов (Лёша Пряхин), Людмила Иванова (Клавдия Матвеевна), Лариса Удовиченко (Люся Виноградова), Владимир Носик (Гена Сысоев), Александр Ширвиндт (Аркадий, муж Сусанны), Лев Перфилов (Пётр Васильевич, начальник Нади), Любовь Соколова (мать Нади), Вероника Изотова (попутчица в поезде)
Описание: У инженера Нади Клюевой максимум общественной, но минимум личной жизни. Все меняется, когда она случайно встречает в автобусе свою старую знакомую, школьную одноклассницу Сусанну, ныне работающую социологом на заводе бытовых кондиционеров. Сусанна решает наладить личную жизнь своей подруги, используя научный метод.
Доп. информация:
Качество видео: DVDRip-AVC DVD5 Крупный План
Формат видео: MKV
Видео: H.264, 1013х432 (2.344:1) @ 25 кадр/сек, 1670 Кбит/сек, 0.217 Бит/(Пиксели*Кадры)
Аудио: AC3, 6 каналов Front: L C R, Side: L R, LFE постоянный 224 Кбит/сек, 48 kHz

MediaInfo

General
Уникальный идентификатор : 220597277768601154331448003886543063372 (0xA5F57D83AD61E596B981A39AD6F0C94C)
Полное имя : Самая обаятельная и привлекательная.mkv
Формат : Matroska
Размер файла : 1.06 GiB
Продолжительность : 1h 20mn
Общий поток : 1 895 Kbps
Дата кодирования : UTC 2011-02-09 10:54:20
Программа кодирования : mkvmerge v4.4.0 ('Die Wiederkehr') сборка от Dec 25 2010 23:32:50
Библиотека кодирования : libebml v1.0.0 + libmatroska v1.0.0
Video
Идентификатор : 1
Формат : AVC
Формат/Информация : Advanced Video Codec
Профиль формата : High@L3.1
Параметр CABAC формата : Yes
Параметр ReFrames формата : 4 frames
Параметры GOP формата : M=4, N=32
Режим смешивания : Header stripping
Идентификатор кодека : V_MPEG4/ISO/AVC
Продолжительность : 1h 20mn
Битрейт : 1 670 Kbps
Ширина : 712 pixels
Высота : 432 pixels
Соотношение сторон : 2.35:1
Соотношение сторон в оригинале : 2.35:1
Частота кадров : 25.000 fps
Цветовое пространство : YUV
Подвыборка цветности : 4:2:0
Битовая глубина : 8 bits
Тип развёртки : Progressive
Бит/(Пиксели*Кадры) : 0.217
Размер потока : 938 MiB (86%)
Заголовок : Самая обаятельная и привлекательная
Библиотека кодирования : x264 core 112 r1834 a51816a
Настройки программы : cabac=1 / ref=3 / deblock=1:-2:-1 / analyse=0x3:0x113 / me=hex / subme=7 / psy=1 / psy_rd=1.00:0.20 / mixed_ref=1 / me_range=16 / chroma_me=1 / trellis=1 / 8x8dct=1 / cqm=0 / deadzone=21,11 / fast_pskip=1 / chroma_qp_offset=-3 / threads=3 / sliced_threads=0 / nr=0 / decimate=1 / interlaced=0 / constrained_intra=0 / bframes=3 / b_pyramid=2 / b_adapt=1 / b_bias=0 / direct=3 / weightb=1 / open_gop=0 / weightp=2 / keyint=250 / keyint_min=25 / scenecut=40 / intra_refresh=0 / rc_lookahead=40 / rc=2pass / mbtree=1 / bitrate=1670 / ratetol=1.0 / qcomp=0.60 / qpmin=0 / qpmax=51 / qpstep=4 / cplxblur=20.0 / qblur=0.5 / vbv_maxrate=17500 / vbv_bufsize=14000 / ip_ratio=1.40 / aq=1:1.00 / nal_hrd=none
Язык : Russian
Audio
Идентификатор : 2
Формат : AC-3
Формат/Информация : Audio Coding 3
Расширение режима : CM (complete main)
Режим смешивания : Header stripping
Идентификатор кодека : A_AC3
Продолжительность : 1h 20mn
Вид битрейта : Constant
Битрейт : 224 Kbps
Канал(ы) : 6 channels
Расположение каналов : Front: L C R, Side: L R, LFE
Частота : 48.0 KHz
Битовая глубина : 16 bits
Метод сжатия : Lossy
Размер потока : 129 MiB (12%)
Заголовок : AC3 6 chnls cbr 224 kbps, 48 kHz
Язык : Russian
Menu
00:00:00.000 : :1. Титры. Встреча с подругой
00:10:46.000 : :2. Жертва выбрана
00:21:05.000 : :3. Дорога к сердцу мужчины
00:28:56.000 : :4. В новом амплуа
00:32:23.000 : :5. Подпольная модница
00:39:14.000 : :6. В неизвестном направлении
00:45:36.000 : :7. Завидный жених
00:52:37.000 : :8. Командировка
01:05:35.000 : :9. Концерт Джанни Моранди
01:11:07.000 : :10. Деликатная просьба
01:14:10.000 : :11. Признание
01:16:52.000 : :12. По велению души

x264

x264 [info]: frame I:700 Avg QP:20.82 size: 41020
x264 [info]: frame P:56921 Avg QP:22.54 size: 14099
x264 [info]: frame B:62835 Avg QP:25.19 size: 2777

FAQ по просмотру AVC
 
Показать сообщения:    

Текущее время: Сегодня 05:50

Часовой пояс: GMT



Вы не можете начинать темы
Вы не можете отвечать на сообщения
Вы не можете редактировать свои сообщения
Вы не можете удалять свои сообщения
Вы не можете голосовать в опросах
Вы не можете прикреплять файлы к сообщениям
Вы не можете скачивать файлы