Ивановский Торрент трекер
Яндекс.Погода
 

[Цитировать]
HUNTER

Самара- Год выпуска: 2012
Страна: Россия
Жанр: драма, мелодрама
Продолжительность: ~50 минут. серия
Перевод: отсутствует
Субтитры: нет-Режиссёр: Станислав Дремов-В ролях:
Артур Смольянинов, Ольга Арнтгольц, Леонид Громов, Полина Филоненко, Евгения Добровольская, Владимир Симонов, Юрий Батурин, Ёла Санько, Эвелина Блёданс, Луиза-Габриэла Бровина, Елена Коллегова, Александра Морозова, Оксана Семенова, Ольга Дибцева, Виктор Хатеновский, Дарина Фаддеева, Геннадий Матвеев, Серафима Низовская, Максим Фролов, Александр Кузьмин , Алиса Супрун-Описание: Главный герой сериала – врач «Скорой помощи» Олег Самарин. Друзья и коллеги зовут его Самара. Бунтарь и выскочка, он спорит с начальством, отпускает шуточки в адрес коллег и пациентов, нарушает все правила и уставы! Но Самаре все сходит с рук. Он – хирург от Бога! Каждый день Самара со своей бригадой (фельдшером Леной и водителем Михалычем) помогает людям. Пациенты Олега – это пестрая галерея характеров и судеб и порой Самаре приходится лечить не только их тела, но и души. Но и самому Самаре есть что скрывать… У Самары есть тайна, раскрытие которой грозит ему потерей любимой работы. Но, как говорится, все тайное когда-нибудь становится явным…-Качество: SATRip
Формат файла: AVI
Видео кодек: DivX
Аудио кодек: MP3
Видео: DivX 6.9.2 704x384 25.00fps 1300kbps
Аудио: 48 kHz, MPEG Layer 3, 2 ch, ~128.00 kbps avg-

Скриншоты

-

Внимание! Раздача ведётся путём добавления новых серий

Внимание! Раздача ведётся путём добавления новых серий, т.е. при каждом новом добавлении создаётся новый торрент. Чтобы начать докачку новой серии, пользователям необходимо сделать следующее:
(1) остановить скачивание,
(2) удалить старый торрент у себя из клиента (старые серии удалять не надо),
(3) скачать новый торрент и запустить его у себя в клиенте вместо старого, при этом указать клиенту путь в старую папку куда и должно происходить скачивание новых серий.
Ваш клиент при этом должен произвести хеширование (проверку) старой папки (если не производит сам - помогите ему сделать это), и будет докачивать только те серии которых у вас ещё нет. Старые серии при этом не удаляются, а продолжают раздаваться!
Eсли вы уже удалили старые серии, то предотвратить повторную закачку старых серий можно, отжав галочку в соответствующих местах при запуске нового торрента.
-

MI

Код: copyText_writeLink('this.parentNode.parentNode.nextSibling.nextSibling'); D:\Видео\Сериалы\Русские сериалы\Самара\Самара - 01.avi
General
Complete name : D:\Видео\Сериалы\Русские сериалы\Самара\Самара - 01.avi
Format : AVI
Format/Info : Audio Video Interleave
File size : 487 MiB
Duration : 47mn 17s
Overall bit rate : 1 438 Kbps
Writing application : VirtualDubModRus 1.5.10.1 (build 2439/release)
Writing library : VirtualDubMod build 2439/release
Video #0
ID : 0
Format : MPEG-4 Visual
Format settings, BVOP : 1
Format settings, QPel : No
Format settings, GMC : No warppoints
Format settings, Matrix : Default (H.263)
Muxing mode : Packed bitstream
Codec ID : DX50
Codec ID/Hint : DivX 5
Duration : 47mn 17s
Bit rate : 1 300 Kbps
Width : 704 pixels
Height : 384 pixels
Display aspect ratio : 16:9
Frame rate : 25.000 fps
Color space : YUV
Chroma subsampling : 4:2:0
Bit depth : 8 bits
Scan type : Progressive
Compression mode : Lossy
Bits/(Pixel*Frame) : 0.192
Stream size : 440 MiB (90%)
Writing library : DivX 6.8.5 (UTC 2009-08-20)
Audio #1
ID : 1
Format : MPEG Audio
Format version : Version 1
Format profile : Layer 3
Mode : Joint stereo
Mode extension : MS Stereo
Codec ID : 55
Codec ID/Hint : MP3
Duration : 47mn 17s
Bit rate mode : Constant
Bit rate : 128 Kbps
Channel(s) : 2 channels
Sampling rate : 48.0 KHz
Compression mode : Lossy
Stream size : 43.3 MiB (9%)
Alignment : Split accross interleaves
Interleave, duration : 40 ms (1.00 video frame)
Interleave, preload duration : 500 ms
-Торрент обновлен 22.05.2012. Добавлены 13-14 серии. Сериал завершен.
Показать сообщения:    

Текущее время: 22-Сен 07:16

Часовой пояс: UTC - 1


Вы не можете начинать темы
Вы не можете отвечать на сообщения
Вы не можете редактировать свои сообщения
Вы не можете удалять свои сообщения
Вы не можете голосовать в опросах
Вы не можете прикреплять файлы к сообщениям
Вы не можете скачивать файлы

!ВНИМАНИЕ!
Сайт не предоставляет электронные версии произведений, а занимается лишь коллекционированием и каталогизацией ссылок, присылаемых и публикуемых на форуме нашими читателями. Если вы являетесь правообладателем какого-либо представленного материала и не желаете, чтобы ссылка на него находилась в нашем каталоге, свяжитесь с нами, и мы незамедлительно удалим ее. Файлы для обмена на трекере предоставлены пользователями сайта, и администрация не несет ответственности за их содержание. Просьба не заливать файлы, защищенные авторскими правами, а также файлы нелегального содержания!