Ивановский Торрент трекер
Яндекс.Погода
 

[Цитировать]
HUNTER

Сальвадор / Salvador
Страна: Великобритания, США
Жанр: триллер, драма, военный
Год выпуска: 1986
Продолжительность: 02:03:11
Перевод: Профессиональный (многоголосый закадровый)
+ Одноголосый закадровый - M Яроцкий
+ Одноголосый закадровый
Cубтитры: русские, английские
Оригинальная аудиодорожка: английский-Режиссер: Оливер Стоун / Oliver Stone-В ролях: Джеймс Вудс, Джеймс Белуши, Майкл Мерфи, Джон Сэвэдж, Эльпидия Каррильо, Тони Плана, Колби Честер, Синтия Гибб, Уилл МакМиллан, Валери Уайлдмен-Описание: Тропический рай, в котором доступны все удовольствия мира. Неистовство красок, фантастические женщины, море выпивки, любые наркотики - и все это совсем или практически бесплатно! Репортер Ричард Бойл знает Сальвадор именно таким, он провел здесь много незабываемых месяцев.
И когда, вслед за уходом жены, он вылетает с работы и в конце концов попадает за решетку, он уговаривает товарища по несчастью бежать именно сюда. В отличие от прошедшего все круги ада Ричарда, Доктор Рок - простой беззаботный искатель приключений. И умей он заглядывать в будущее или хотя бы в газеты - все могло сложиться иначе! Далекий земной рай, который так хорошо знал Ричард, успел стать ареной чудовищной, кровавой гражданской войны.
И как это было с ним во Вьетнаме, в Камбодже - в любом месте, где жизнь целой страны зависит от решений узкого круга недостижимо далеких от нее лиц, для Ричарда эта война становится больше, чем работой - жизнью.-Релиз:
by delia-Качество видео: BDRip | SbR
Формат видео: MKV
Видео: 1280x694 at 23.976 fps, x264@L4.1, ~9760 kbps avg
Аудио 1: Russian: 48 kHz, AC3, 3/2 (L,C,R,l,r) + LFE ch, ~448 kbps avg |Многоголосый закадровый|
Аудио 2: Russian: 48 kHz, AC3, 3/2 (L,C,R,l,r) + LFE ch, ~640 kbps avg |Одноголосый закадровый, Яроцкий|
Аудио 3: Russian: 48 kHz, AC3, 3/2 (L,C,R,l,r) + LFE ch, ~448 kbps avg |Одноголосый закадровый|
Аудио 4: English: 48 kHz, AC3, 3/2 (L,C,R,l,r) + LFE ch, ~640 kbps avg- -Цитата:
  • Сохранены оригинальные главы как на Blu-ray
  • Перевод Михаила Яроцкого доступен благодаря mihey10 с ресурса "Переулок Переводмана"

MediaInfo

Format                      : Matroska
Format version              : Version 4 / Version 2
File size                   : 10.2 GiB
Duration                    : 2 h 3 min
Overall bit rate            : 11.9 Mb/s
Encoded date                : UTC 2016-08-16 20:52:07
Writing application         : mkvmerge v8.3.0 ('Over the Horizon') 32bit
Writing library             : libebml v1.3.1 + libmatroska v1.4.2
Cover                       : Yes
Attachments                 : cover.jpg
Video
ID                          : 1
Format                      : AVC
Format/Info                 : Advanced Video Codec
Format profile              : High@L4.1
Format settings, CABAC      : Yes
Format settings, ReFrames   : 9 frames
Codec ID                    : V_MPEG4/ISO/AVC
Duration                    : 2 h 2 min
Bit rate                    : 9 760 kb/s
Width                       : 1 280 pixels
Height                      : 694 pixels
Display aspect ratio        : 1.85:1
Frame rate mode             : Constant
Frame rate                  : 23.976 (23976/1000) FPS
Color space                 : YUV
Chroma subsampling          : 4:2:0
Bit depth                   : 8 bits
Scan type                   : Progressive
Bits/(Pixel*Frame)          : 0.458
Stream size                 : 8.37 GiB (82%)
Writing library             : x264 core 148 r2705kMod 3f5ed56
Encoding settings           : cabac=1 / ref=9 / deblock=1:-3:-3 / analyse=0x3:0x133 / me=umh / subme=10 / psy=1 / fade_compensate=0.00 / psy_rd=1.00:0.05 / mixed_ref=1 / me_range=24 / chroma_me=1 / trellis=2 / 8x8dct=1 / cqm=0 / deadzone=21,11 / fast_pskip=0 / chroma_qp_offset=-3 / threads=6 / lookahead_threads=1 / sliced_threads=0 / nr=0 / decimate=1 / interlaced=0 / bluray_compat=0 / constrained_intra=0 / fgo=0 / bframes=8 / b_pyramid=2 / b_adapt=2 / b_bias=0 / direct=3 / weightb=1 / open_gop=0 / weightp=2 / keyint=250 / keyint_min=23 / scenecut=40 / intra_refresh=0 / rc_lookahead=60 / rc=crf / mbtree=0 / crf=16.5000 / qcomp=0.65 / qpmin=0 / qpmax=69 / qpstep=4 / vbv_maxrate=62500 / vbv_bufsize=78125 / crf_max=0.0 / nal_hrd=none / filler=0 / ip_ratio=1.30 / pb_ratio=1.20 / aq=1:0.70
Language                    : English
Default                     : Yes
Forced                      : No
Color range                 : Limited
Color primaries             : BT.709
Transfer characteristics    : BT.709
Matrix coefficients         : BT.709
Audio #1
ID                          : 2
Format                      : AC-3
Format/Info                 : Audio Coding 3
Mode extension              : CM (complete main)
Format settings, Endianness : Big
Codec ID                    : A_AC3
Duration                    : 2 h 3 min
Bit rate mode               : Constant
Bit rate                    : 448 kb/s
Channel(s)                  : 6 channels
Channel positions           : Front: L C R, Side: L R, LFE
Sampling rate               : 48.0 kHz
Frame rate                  : 31.250 FPS (1536 spf)
Compression mode            : Lossy
Stream size                 : 395 MiB (4%)
Title                       : Многоголосый закадровый
Language                    : Russian
Default                     : Yes
Forced                      : No
Audio #2
ID                          : 3
Format                      : AC-3
Format/Info                 : Audio Coding 3
Mode extension              : CM (complete main)
Format settings, Endianness : Big
Codec ID                    : A_AC3
Duration                    : 2 h 3 min
Bit rate mode               : Constant
Bit rate                    : 640 kb/s
Channel(s)                  : 6 channels
Channel positions           : Front: L C R, Side: L R, LFE
Sampling rate               : 48.0 kHz
Frame rate                  : 31.250 FPS (1536 spf)
Compression mode            : Lossy
Stream size                 : 564 MiB (5%)
Title                       : Одноголосый закадровый, Яроцкий
Language                    : Russian
Default                     : No
Forced                      : No
Audio #3
ID                          : 4
Format                      : AC-3
Format/Info                 : Audio Coding 3
Mode extension              : CM (complete main)
Format settings, Endianness : Big
Codec ID                    : A_AC3
Duration                    : 2 h 3 min
Bit rate mode               : Constant
Bit rate                    : 448 kb/s
Channel(s)                  : 6 channels
Channel positions           : Front: L C R, Side: L R, LFE
Sampling rate               : 48.0 kHz
Frame rate                  : 31.250 FPS (1536 spf)
Compression mode            : Lossy
Stream size                 : 395 MiB (4%)
Title                       : Одноголосый закадровый
Language                    : Russian
Default                     : No
Forced                      : No
Audio #4
ID                          : 5
Format                      : AC-3
Format/Info                 : Audio Coding 3
Mode extension              : CM (complete main)
Format settings, Endianness : Big
Codec ID                    : A_AC3
Duration                    : 2 h 3 min
Bit rate mode               : Constant
Bit rate                    : 640 kb/s
Channel(s)                  : 6 channels
Channel positions           : Front: L C R, Side: L R, LFE
Sampling rate               : 48.0 kHz
Frame rate                  : 31.250 FPS (1536 spf)
Compression mode            : Lossy
Stream size                 : 564 MiB (5%)
Language                    : English
Default                     : No
Forced                      : No
Text #1
ID                          : 6
Format                      : UTF-8
Codec ID                    : S_TEXT/UTF8
Codec ID/Info               : UTF-8 Plain Text
Duration                    : 1 h 57 min
Bit rate                    : 108 b/s
Count of elements           : 1484
Stream size                 : 93.3 KiB (0%)
Language                    : Russian
Default                     : No
Forced                      : No
Text #2
ID                          : 7
Format                      : UTF-8
Codec ID                    : S_TEXT/UTF8
Codec ID/Info               : UTF-8 Plain Text
Duration                    : 1 h 55 min
Bit rate                    : 71 b/s
Count of elements           : 1691
Stream size                 : 60.7 KiB (0%)
Language                    : English
Default                     : No
Forced                      : No
Text #3
ID                          : 8
Format                      : UTF-8
Codec ID                    : S_TEXT/UTF8
Codec ID/Info               : UTF-8 Plain Text
Duration                    : 1 h 56 min
Bit rate                    : 75 b/s
Count of elements           : 1832
Stream size                 : 63.8 KiB (0%)
Title                       : SDH
Language                    : English
Default                     : No
Forced                      : No
Menu
00:00:00.000                : en:00:00:00.000
00:10:39.388                : en:00:10:39.388
00:20:09.750                : en:00:20:09.750
00:30:09.057                : en:00:30:09.057
00:40:24.004                : en:00:40:24.004
00:50:48.045                : en:00:50:48.045
01:02:09.517                : en:01:02:09.517
01:09:33.419                : en:01:09:33.419
01:21:57.996                : en:01:21:57.996
01:30:44.856                : en:01:30:44.856
01:39:31.507                : en:01:39:31.507
01:58:36.109                : en:01:58:36.109
02:02:42.480                : en:02:02:42.480

Скриншоты

Показать сообщения:    

Текущее время: 18-Окт 01:06

Часовой пояс: UTC - 1


Вы не можете начинать темы
Вы не можете отвечать на сообщения
Вы не можете редактировать свои сообщения
Вы не можете удалять свои сообщения
Вы не можете голосовать в опросах
Вы не можете прикреплять файлы к сообщениям
Вы не можете скачивать файлы

!ВНИМАНИЕ!
Сайт не предоставляет электронные версии произведений, а занимается лишь коллекционированием и каталогизацией ссылок, присылаемых и публикуемых на форуме нашими читателями. Если вы являетесь правообладателем какого-либо представленного материала и не желаете, чтобы ссылка на него находилась в нашем каталоге, свяжитесь с нами, и мы незамедлительно удалим ее. Файлы для обмена на трекере предоставлены пользователями сайта, и администрация не несет ответственности за их содержание. Просьба не заливать файлы, защищенные авторскими правами, а также файлы нелегального содержания!