Важное объявление!
У Нас Все раздачи мультитрекерные, при нуле пиров в релизах, можете смело вставать на закачку!
 
Автор Сообщение

HUNTER

Стаж:
4 года 11 месяцев
Сообщений:
66009

Репутация: 101

[+] [-]
Вне форума [Профиль] [ЛС]

-
Год выпуска: 2014
Страна: Япония
Жанр: комедия
Продолжительность: ТВ-сериал, 13 эп. по 24 мин.
Выпуск: c 06.01.2014 по 07.04.2014-Перевод:
  • русские субтитры от anipaladin (полные/вспомогательные)
-Режиссер: Оно Манабу
Студия: Studio Gokumi-Описание:
В Токио стартует 71-й чемпионат страны по маджонгу среди старших школ. В столицу прибывают десятки команд, и среди них – ранее никому не известная школа Киёсуми из префектуры Нагано. Впрочем, специалисты уже оценили тактическое мастерство их капитана Хисы Такэй, ясный счетный стиль Нодоки Харамуры и необъяснимое, пугающее везение лидера команды Саки Миянаги. Саки, тихая и замкнутая девушка, преобразилась, твердо решив повидать старшую сестру и устранить непонимание, возникшее после размолвки родителей. Тэру Миянага, суперзвезда школьного маджонга, прилюдно заявила, что у нее нет сестры – разговор с такой гордячкой лучше начать, хорошенько врезав ей за игровым столом!
Но до цели еще нужно добраться, а на пути стоят сильнейшие юные мастера, волею автора разделенные на две категории. Одни традиционно надеются на знание законов игры, подсчет вероятностей, изучение стиля и психологии соперников. Другие же наделены сверхъестественными способностями и умеют заглядывать в будущее, видеть чужие расклады, приманивать нужные камни, а девушки-мико могут даже призывать на помощь синтоистских богов! Оба подхода хороши, а значит, нас ждет немало интереснейших матчей, и вопрос лишь один: в каком сезоне состоится решающая встреча сестер Миянага – в этом или следующем?
© Hollow, World Art
Название сериала дословно переводится как «Саки: глава национального чемпионата». Из предыдущих сезонов известно, что в финал командного турнира из группы А вышли прошлогодние чемпионы, токийская школа Сирайтодай (команда Тэру Миянаги) и новички из академии Атига. Чтобы пройти в Финал четырех, школа Киёсуми должна попасть в число двух лучших команд группы В. Даже в этом случае Саки и Тэру не встретятся за столом, ибо в своих командах играют на разных позициях, а менять заявку по ходу турнира нельзя.-Информационные ссылки: AniDB || World Art || MAL-Качество: BDRip
Энкод: Winter - RG Pantheon
Тип видео: без хардсаба
Формат: mkv
Видео: x264 (Hi10p), 1280x720, ~2900 Kbps, 23.976 fps
Аудио JAP: Vorbis, 48000 Hz, ~256 Kbps, 2ch-

Список эпизодов

01. To Tokyo
02. Support

Скриншоты


Подробные тех. данные

Общее
Уникальный идентификатор : 204240671121416958605768745540027778613 (0x99A7528B42B7264B9B1085159E198635)
Полное имя : Z:\Anime\720p\Saki - Zenkoku Hen [BD] [720p]\[Winter] Saki - Zenkoku Hen 01 [BDrip 1280x720 x264 Vorbis].mkv
Формат : Matroska
Версия формата : Version 2
Размер файла : 515 Мбайт
Продолжительность : 23 м.
Режим общего битрейта : Переменный
Общий поток : 3019 Кбит/сек
Дата кодирования : UTC 2014-03-22 07:02:45
Программа кодирования : mkvmerge v2.9.8 ('C'est le bon') built on Aug 13 2009 12:49:06
Библиотека кодирования : libebml v0.7.7 + libmatroska v0.8.1
Видео
Идентификатор : 1
Формат : AVC
Формат/Информация : Advanced Video Codec
Профиль формата : High 10@L4.1
Параметр CABAC формата : Да
Параметр ReFrames формата : 9 кадров
Идентификатор кодека : V_MPEG4/ISO/AVC
Продолжительность : 23 м.
Битрейт : 2702 Кбит/сек
Ширина : 1280 пикселей
Высота : 720 пикселей
Соотношение сторон : 16:9
Режим частоты кадров : Постоянный
Частота кадров : 23,976 кадра/сек
Цветовое пространство : YUV
Субдискретизация насыщенности : 4:2:0
Битовая глубина : 10 бит
Тип развёртки : Прогрессивная
Бит/(Пиксели*Кадры) : 0.122
Размер потока : 461 Мбайт (90%)
Библиотека кодирования : x264 core 132 r2309 3b1f1f7
Настройки программы : cabac=1 / ref=9 / deblock=1:-2:-2 / analyse=0x3:0x133 / me=umh / subme=9 / psy=1 / psy_rd=0.90:0.00 / mixed_ref=1 / me_range=24 / chroma_me=1 / trellis=2 / 8x8dct=1 / cqm=0 / deadzone=21,11 / fast_pskip=1 / chroma_qp_offset=-2 / threads=12 / lookahead_threads=2 / sliced_threads=0 / nr=0 / decimate=0 / interlaced=0 / bluray_compat=0 / constrained_intra=0 / bframes=8 / b_pyramid=2 / b_adapt=2 / b_bias=0 / direct=1 / weightb=1 / open_gop=0 / weightp=2 / keyint=250 / keyint_min=23 / scenecut=40 / intra_refresh=0 / rc=crf / mbtree=0 / crf=15.6 / qcomp=0.70 / qpmin=9 / qpmax=40 / qpstep=4 / ip_ratio=1.40 / pb_ratio=1.30 / aq=1:0.90
Default : Нет
Forced : Нет
Аудио
Идентификатор : 2
Формат : Vorbis
Параметр Floor формата : 1
Идентификатор кодека : A_VORBIS
Продолжительность : 23 м.
Вид битрейта : Переменный
Битрейт : 256 Кбит/сек
Каналы : 2 канала
Частота : 48,0 КГц
Метод сжатия : С потерями
Размер потока : 43,7 Мбайт (8%)
Библиотека кодирования : libVorbis (Schaufenugget) (20101101 (Schaufenugget))
Язык : Japanese
Default : Да
Forced : Нет
- -

Информация о релизе

  • Выбор видео, перевода, озвучки, а также типа сборки материала осуществляется релизером и не подлежит обсуждению. Если вы считаете, что раздаваемый материал противоречит правилам раздела "Аниме" rutracker.org, сообщите об этом одному из модераторов раздела.
  • В случае появления нового материала или же лучшего по качеству материала релизер оставляет за собой право обновить раздачу. В этом случае вам необходимо ознакомиться с изменениями (добавлениями) и перекачать торрент.
  • Данный релиз предназначен для просмотра на ПК. Воспроизведение на иных проигрывателях не гарантируется. Для просмотра рекомендуется Media Player Classic с установленным пакетом кодеков K-Lite.
  • Данный релиз содержит 10-битное видео (Hi10p). Для корректного воспроизведения обязательно используйте кодеки, поддерживающие 10-битное видео.
    Обсудить частные случаи проблем с воспроизведением и получить дополнительную информацию можно здесь.

  • Данный релиз предназначен для просмотра с внешними субтитрами и внешними звуковыми дорожками.
    • Для просмотра с внешней звуковой дорожкой нужно:
      перекинуть файлы .mka из папки "RUS Sound [<автор(ы) озвучки>]" в одну папку с видео и переключить звуковую дорожку в плеере при просмотре. Как это сделать в разных плеерах подробно описано здесь.

    • Для просмотра с субтитрами нужно:
      перекинуть файлы .ass из папки "RUS Subtitles [<автор(ы) перевода>]" в одну папку с видео - плеер подгрузит их автоматически при открытии видео.
  • Если у вас возникли проблемы с просмотром, не связанные с описанным выше, сообщите о них автору раздачи посредством сообщения в теме или ЛС Aglenn.

_________________
Показать сообщения:    

Текущее время: Сегодня 15:15

Часовой пояс: GMT



Вы не можете начинать темы
Вы не можете отвечать на сообщения
Вы не можете редактировать свои сообщения
Вы не можете удалять свои сообщения
Вы не можете голосовать в опросах
Вы не можете прикреплять файлы к сообщениям
Вы не можете скачивать файлы