Важное объявление!
У Нас Все раздачи мультитрекерные, при нуле пиров в релизах, можете смело вставать на закачку!
 
Автор Сообщение

HUNTER

Стаж:
4 года 8 месяцев
Сообщений:
62020

Репутация: 101

[+] [-]
Вне форума [Профиль] [ЛС]

Сайонара / Sayonara
Страна: США
Жанр: драма, мелодрама
Год выпуска: 1957
Продолжительность: 02:21:22
Перевод: Профессиональный (многоголосый закадровый)
Cубтитры: русские, английские
Оригинальная аудиодорожка: английский-Режиссер: Джошуа Логан / Joshua Logan
В ролях: Марлон Брандо, Пэт Оуенс, Ред Баттонс, Миико Така, Рикардо Монтальбан, Марта Скотт, Миёси Умэки, Джеймс Гарнер, Кент Смит, Дугласс Уотсон
Описание: По одноимённому роману Джеймса Миченера.
Майор Ллойд Грувер служит на японской военно-воздушной базе в разгар войны в Корее. Грувер видит проявления расизма со стороны американских военных по отношению к японцам: военнослужащим запрещают жениться на японках.
Будучи первое время равнодушен к такой ситуации, Грувер вынужден изменить свою позицию, когда его друг Джо Келли влюбляется в местную женщину и собирается сочетаться с ней законным браком. Келли через голову командования обращается с прошением в Конгресс. Поддерживая своего товарища, Грувер сам влюбляется в прекрасную японскую танцовщицу Хана-оги и оказывается в таком же положении, что и Келли.
IMDb || КиноПоиск-Тип релиза: HDTVRip 720p [CtrlHD]
Контейнер: MKV
Видео: H.264/AVC, 1280x546 at 25.000 fps, ~6150 kbps
Аудио#1: Russian: 48 kHz, AC3, 2/0 (L,R) ch, 384.00 kbps |Многоголосый закадровый|
Аудио#2: English: 48 kHz, AC3, 2/0 (L,R) ch, 384.00 kbps
Формат субтитров: softsub (SRT)
Сэмпл

MediaInfo

Format : Matroska
Format version : Version 2
File size : 6.83 GiB
Duration : 2h 21mn
Overall bit rate : 6 921 Kbps
Encoded date : UTC 2013-04-22 08:45:29
Writing application : mkvmerge v5.0.1 ('Es ist Sommer') built on Nov 6 2011 16:23:40
Writing library : libebml v1.2.2 + libmatroska v1.3.0
Video
ID : 1
Format : AVC
Format/Info : Advanced Video Codec
Format profile : High@L4.1
Format settings, CABAC : Yes
Format settings, ReFrames : 11 frames
Codec ID : V_MPEG4/ISO/AVC
Duration : 2h 21mn
Bit rate : 6 150 Kbps
Width : 1 280 pixels
Height : 546 pixels
Display aspect ratio : 2.35:1
Frame rate : 25.000 fps
Color space : YUV
Chroma subsampling : 4:2:0
Bit depth : 8 bits
Scan type : Progressive
Bits/(Pixel*Frame) : 0.352
Stream size : 5.94 GiB (87%)
Writing library : x264 core 130 r2273 b3065e6
Encoding settings : cabac=1 / ref=11 / deblock=1:-3:-3 / analyse=0x3:0x133 / me=umh / subme=10 / psy=1 / psy_rd=1.00:0.00 / mixed_ref=1 / me_range=24 / chroma_me=1 / trellis=2 / 8x8dct=1 / cqm=0 / deadzone=21,11 / fast_pskip=0 / chroma_qp_offset=-2 / threads=12 / lookahead_threads=2 / sliced_threads=0 / nr=0 / decimate=0 / interlaced=0 / bluray_compat=0 / constrained_intra=0 / bframes=8 / b_pyramid=2 / b_adapt=2 / b_bias=0 / direct=3 / weightb=1 / open_gop=0 / weightp=2 / keyint=250 / keyint_min=25 / scenecut=40 / intra_refresh=0 / rc=2pass / mbtree=0 / bitrate=6150 / ratetol=1.0 / qcomp=0.75 / qpmin=0 / qpmax=69 / qpstep=4 / cplxblur=20.0 / qblur=0.5 / ip_ratio=1.20 / pb_ratio=1.10 / aq=1:0.90
Language : English
Default : Yes
Forced : No
Audio #1
ID : 2
Format : AC-3
Format/Info : Audio Coding 3
Mode extension : CM (complete main)
Codec ID : A_AC3
Duration : 2h 21mn
Bit rate mode : Constant
Bit rate : 384 Kbps
Channel(s) : 2 channels
Channel positions : Front: L R
Sampling rate : 48.0 KHz
Bit depth : 16 bits
Compression mode : Lossy
Stream size : 388 MiB (6%)
Language : Russian
Default : Yes
Forced : No
Audio #2
ID : 3
Format : AC-3
Format/Info : Audio Coding 3
Format profile : Dolby Digital
Mode extension : CM (complete main)
Codec ID : A_AC3
Duration : 2h 21mn
Bit rate mode : Constant
Bit rate : 384 Kbps
Channel(s) : 2 channels
Channel positions : Front: L R
Sampling rate : 48.0 KHz
Bit depth : 16 bits
Compression mode : Lossy
Stream size : 388 MiB (6%)
Language : English
Default : No
Forced : No
Text #1
ID : 4
Format : UTF-8
Codec ID : S_TEXT/UTF8
Codec ID/Info : UTF-8 Plain Text
Language : Russian
Default : No
Forced : No
Text #2
ID : 5
Format : UTF-8
Codec ID : S_TEXT/UTF8
Codec ID/Info : UTF-8 Plain Text
Language : English
Default : No
Forced : No

Скриншоты


_________________
Показать сообщения:    

Текущее время: Сегодня 11:11

Часовой пояс: GMT



Вы не можете начинать темы
Вы не можете отвечать на сообщения
Вы не можете редактировать свои сообщения
Вы не можете удалять свои сообщения
Вы не можете голосовать в опросах
Вы не можете прикреплять файлы к сообщениям
Вы не можете скачивать файлы
Наши партнеры: интернет магазин Ивановского трикотажа textilla.ru