Ивановский Торрент трекер
Яндекс.Погода
 

[Цитировать]
HUNTER

Саймон - Король ведьм / Саймон - Повелитель ведьм / Simon, King of the Witches
Страна: США
Студия: Fanfare Films
Жанр: мистика, ужасы
Год выпуска: 1971
Продолжительность: 01:38:56
Перевод: Одноголосый закадровый Есарёв
Cубтитры: нет
Оригинальная аудиодорожка: английский
Режиссер: Брюс Кесслер / Bruce Kessler
В ролях: Эллисон Эймс, Бак Холланд, Майкл Форд, Шерон Беррихилл
Описание: Молодой человек Саймон практикует колдовство и магию. Естественно, в те времена свободной любви, беспробудного пьянства, обкуренных хиппи и бессмысленного прожигания жизни это мало кого может удивить. В результате от Саймона отворачиваются все его малочисленные друзья. Саймон отправляется бродяжничать и однажды в полицейском закутке знакомится с молодым плейбоем по имени Трой. Тот приводит его в дом своего друга, богатого бездельника Геркулеса, который ведет такую же пустую жизнь, как неимущие хиппи, но в более роскошном стиле. Саймон становится главной достопримечательностью вечеринок Геркулеса. Но постепенно Саймон понимает, что является, по сути, всего лишь шутом среди гостей Геркулеса, которые не воспринимают его сверхъестественные способности всерьез. Рассвирепевший Саймон решает продемонстрировать всю свою колдовскую силу, и вот в городе начинают происходить загадочные зловещие события…
Интересно, что сценарист этого фильма Роберт Фипни в реальности практиковал колдовские и магические ритуалы. Режиссер Брюс Кесслер всю свою жизнь проработал на телевидении. Сыгравшая Оливию актриса Эллисон Эймс («Планета-призрак», 1961; «Коллекционер», 1965; «Злой дух», 1966) знаменита тем, что целый год была супругой известного сценариста и продюсера Лесли Стивенса («Глаз кота», 1969; «Галактические сражения», 1978; «Бак Роджерс в 25 веке», 1979; «Шина-королева джунглей», 1984).
Доп. информация: За русскую дорожку большое спасибо арт.видео (Устинову)
Спасибо:
Меню отсутствует.
При пересборе двд были использованы программы:
PgcDemux - разделение компонентов диска на файлы
Muxman - мультиплексирование и авторинг DVD
VobBlanker - реавторинг DVD

Скрин завершения проекта

Сэмпл: http://sendfile.su/1082208
Тип релиза: DVD5 (Custom)
Контейнер: DVD-Video
Видео: NTSC 16:9 (720x480) VBR Auto Pan&Scan
Аудио: Russian (Dolby AC3, 192 Кбит/сек, 2 ch)
Аудио 2: English (Dolby AC3, 192 Кбит/сек, 2 ch)

DVDInfo

Size: 1.91 Gb ( 2 004 696 KBytes ) - DVD-5
Enabled regions: 1, 2, 3, 4, 5, 6, 8
VTS_01 :
Play Length: 01:38:56
Video: NTSC 16:9 (720x480) VBR, Auto Pan&Scan
Audio:
Russian (Dolby AC3, 2 ch)
English (Dolby AC3, 2 ch)
Menu Video:
NTSC 16:9 (720x480) VBR
Auto Pan&Scan
Menu English Language Unit :
Root Menu

MediaInfo

Общее
Полное имя : J:\Simon, King of the Witches_1971\VIDEO_TS\VTS_01_1.VOB
Формат : MPEG-PS
Размер файла : 1024 Мбайт
Продолжительность : 55 м.
Режим общего битрейта : Переменный
Общий поток : 2594 Кбит/сек
Видео
Идентификатор : 224 (0xE0)
Формат : MPEG Video
Версия формата : Version 2
Профиль формата : Main@Main
Параметр BVOP формата : Да
Параметр матрицы формата : По умолчанию
Параметр GOP формата : M=3, N=12
Продолжительность : 55 м.
Вид битрейта : Переменный
Максимальный битрейт : 9072 Кбит/сек
Ширина : 720 пикселей
Высота : 480 пикселей
Соотношение сторон : 16:9
Частота кадров : 23,976 кадра/сек
Стандарт вещания : NTSC
Цветовое пространство : YUV
Субдискретизация насыщенности : 4:2:0
Битовая глубина : 8 бит
Тип развёртки : Прогрессивная
Порядок развёртки : 2:3 Pulldown
Метод сжатия : С потерями
Аудио #1
Идентификатор : 189 (0xBD)-128 (0x80)
Формат : AC-3
Формат/Информация : Audio Coding 3
Расширение режима : CM (complete main)
Параметр Endianness формата : Big
Режим смешивания : DVD-Video
Продолжительность : 55 м.
Вид битрейта : Постоянный
Битрейт : 192 Кбит/сек
Каналы : 2 канала
Расположение каналов : Front: L R
Частота : 48,0 КГц
Битовая глубина : 16 бит
Метод сжатия : С потерями
Размер потока : 75,8 Мбайт (7%)
Аудио #2
Идентификатор : 189 (0xBD)-129 (0x81)
Формат : AC-3
Формат/Информация : Audio Coding 3
Расширение режима : CM (complete main)
Параметр Endianness формата : Big
Режим смешивания : DVD-Video
Продолжительность : 55 м.
Вид битрейта : Постоянный
Битрейт : 192 Кбит/сек
Каналы : 2 канала
Расположение каналов : Front: L R
Частота : 48,0 КГц
Битовая глубина : 16 бит
Метод сжатия : С потерями
Размер потока : 75,8 Мбайт (7%)
Аудио #3
Идентификатор : 210 (0xD2)
Формат : MPEG Audio
Метод сжатия : С потерями
Меню

Постер

Скриншоты



Показать сообщения:    

Текущее время: 13-Дек 19:08

Часовой пояс: UTC ± 0


Вы не можете начинать темы
Вы не можете отвечать на сообщения
Вы не можете редактировать свои сообщения
Вы не можете удалять свои сообщения
Вы не можете голосовать в опросах
Вы не можете прикреплять файлы к сообщениям
Вы не можете скачивать файлы

!ВНИМАНИЕ!
Сайт не предоставляет электронные версии произведений, а занимается лишь коллекционированием и каталогизацией ссылок, присылаемых и публикуемых на форуме нашими читателями. Если вы являетесь правообладателем какого-либо представленного материала и не желаете, чтобы ссылка на него находилась в нашем каталоге, свяжитесь с нами, и мы незамедлительно удалим ее. Файлы для обмена на трекере предоставлены пользователями сайта, и администрация не несет ответственности за их содержание. Просьба не заливать файлы, защищенные авторскими правами, а также файлы нелегального содержания!