Важное объявление!
У Нас Все раздачи мультитрекерные, при нуле пиров в релизах, можете смело вставать на закачку!
 
Автор Сообщение

HUNTER

Стаж:
4 года 7 месяцев
Сообщений:
61476

Репутация: 101

[+] [-]
Вне форума [Профиль] [ЛС]

Саботаж / Sabotage / I Married a Murderer / The Woman Alone-
Год выпуска: 1936
Страна: Великобритания
Жанр: триллер, детектив
Продолжительность: 01:17:06
Перевод: Профессиональный (многоголосый, закадровый) SomeWax
Оригинальная аудиодорожка: Английская
Cубтитры: Русские, английские-Режиссер: Альфред Хичкок / Alfred Hitchcock
В ролях: Сильвия Сидни, Оскар Хомолка, Десмонд Тестер, Джон Лодер, Джойс Барбо, Мэттью Болтон, С.Дж. Уормингтон, Уильям Дьюхерст, Памела Беван, Питер Булл-Описание:
По мотивам романа Джозефа Конрада «Секретный агент» (1907).
Саботажник Карл Верлок, скрываясь под маской общительного владельца кинотеатра, проводит серию диверсий в Лондоне. Почувствовав, что находится под наблюдением сыщика Теда Спенсера, он просит мальчика Стиви, младшего брата его жены, доставить на другой конец города сверток. Это бомба с часовым механизмом…-За дорожку спасибо Галлер.
| Сэмпл-Качество: WEB-DL 720p (brento)
Контейнер: MKV
Видео: AVC, 960x720 (1.33:1), 23.976 fps, 3934 kbps
Аудио 1: Русский AC3 2.0, 48 kHz, 192 kbps — SomeWax
Аудио 2: Английский AC3 2.0, 48 kHz, 224 kbps
Аудио 3: Английкий AAC 2.0, 48 kHz, 110 kbps
Формат субтитров: softsub (SRT)

Скриншоты


MI

General
Unique ID : 187325819456682169479286372744159536480 (0x8CEDA3F820383A10ABB03E9D6EB7A560)
Complete name : Sabotage 1936 720p WEB-DL H.264-brento.mkv
Format : Matroska
Format version : Version 2
File size : 2.40 GiB
Duration : 1h 17mn
Overall bit rate : 4 464 Kbps
Movie name : Sabotage / The Woman Alone / I Married a Murderer (1936) – RuTracker
Encoded date : UTC 2014-04-09 20:39:21
Writing application : mkvmerge v6.1.0 ('Old Devil') built on Mar 2 2013 14:32:37
Writing library : libebml v1.3.0 + libmatroska v1.4.0
Attachment : Yes
Video
ID : 1
Format : AVC
Format/Info : Advanced Video Codec
Format profile : Main@L3.1
Format settings, CABAC : No
Format settings, ReFrames : 2 frames
Codec ID : V_MPEG4/ISO/AVC
Duration : 1h 17mn
Width : 960 pixels
Height : 720 pixels
Display aspect ratio : 4:3
Frame rate mode : Constant
Frame rate : 23.976 fps
Color space : YUV
Chroma subsampling : 4:2:0
Bit depth : 8 bits
Scan type : Progressive
Title : Sabotage 1936 720p WEB-DL AAC2.0 H.264-brento
Language : English
Default : Yes
Forced : No
Color primaries : BT.709
Transfer characteristics : BT.709
Matrix coefficients : BT.709
Audio #1
ID : 2
Format : AC-3
Format/Info : Audio Coding 3
Mode extension : CM (complete main)
Format settings, Endianness : Big
Codec ID : A_AC3
Duration : 1h 17mn
Bit rate mode : Constant
Bit rate : 192 Kbps
Channel(s) : 2 channels
Channel positions : Front: L R
Sampling rate : 48.0 KHz
Bit depth : 16 bits
Compression mode : Lossy
Stream size : 106 MiB (4%)
Title : MVO – SomeWax
Language : Russian
Default : Yes
Forced : No
Audio #2
ID : 3
Format : AC-3
Format/Info : Audio Coding 3
Mode extension : CM (complete main)
Format settings, Endianness : Big
Codec ID : A_AC3
Duration : 1h 17mn
Bit rate mode : Constant
Bit rate : 224 Kbps
Channel(s) : 2 channels
Channel positions : Front: L R
Sampling rate : 48.0 KHz
Bit depth : 16 bits
Compression mode : Lossy
Stream size : 124 MiB (5%)
Title : Original (DVD)
Language : English
Default : No
Forced : No
Audio #3
ID : 4
Format : AAC
Format/Info : Advanced Audio Codec
Format profile : LC
Codec ID : A_AAC
Duration : 1h 17mn
Channel(s) : 2 channels
Channel positions : Front: L R
Sampling rate : 48.0 KHz
Compression mode : Lossy
Title : Original (iTunes)
Language : English
Default : No
Forced : No
Text #1
ID : 5
Format : UTF-8
Codec ID : S_TEXT/UTF8
Codec ID/Info : UTF-8 Plain Text
Title : SomeWax
Language : Russian
Default : No
Forced : No
Text #2
ID : 6
Format : UTF-8
Codec ID : S_TEXT/UTF8
Codec ID/Info : UTF-8 Plain Text
Language : English
Default : No
Forced : No
Menu
00:00:00.000 : en:1
00:01:48.000 : en:2
00:09:48.000 : en:3
00:21:02.000 : en:4
00:29:57.000 : en:5
00:40:58.000 : en:6
00:50:15.000 : en:7
00:59:32.000 : en:8
01:10:32.000 : en:9
01:16:54.000 : en:10

_________________
Показать сообщения:    

Текущее время: Сегодня 19:33

Часовой пояс: GMT



Вы не можете начинать темы
Вы не можете отвечать на сообщения
Вы не можете редактировать свои сообщения
Вы не можете удалять свои сообщения
Вы не можете голосовать в опросах
Вы не можете прикреплять файлы к сообщениям
Вы не можете скачивать файлы
Наши партнеры: интернет магазин Ивановского трикотажа textilla.ru