Важное объявление!
У Нас Все раздачи мультитрекерные, при нуле пиров в релизах, можете смело вставать на закачку!
Статистика раздачи
Размер:     |    Зарегистрирован:     |    Скачан:     |   
Нет
 
     
 
 
Автор Сообщение

HUNTER

Стаж:
5 лет
Сообщений:
68033

Репутация: 101

[+] [-]
Вне форума [Профиль] [ЛС]

Рэмбо IVRambo-
Страна: Германия, США
Жанр: боевик, триллер, военный
Год выпуска: 2008
Продолжительность: 01:30:54-Перевод: Профессиональный (полное дублирование)
Режиссер: Сильвестр Сталлоне / Sylvester Stallone
В ролях: Сильвестр Сталлоне (John Rambo), Джули Бенц (Sarah), Мэттью Мэрсден (School Boy), Грэм МакТавиш (Lewis), Рейнальдо Гальегос (Diaz), Джэйк Ла Ботц (Reese), Тим Кенг (En-Joo), Манг Манг Хим (Tint), Пол Шульц (Michael Burnett), Камерон Пирсон (Missionary #4), Томас Петерсон (Missionary #2), Тони Скарберг (Missionary #3)
Дублёры: Владимир Антоник (John Rambo), Лариса Некипелова (Sarah), Илья Бледный (School Boy), Александр Рахленко (Lewis), Никита Прозоровский (Diaz), Василий Дахненко (Reese), Пётр Иващенко (En-Joo), Олег Вирозуб (Tint), Игорь Тарадайкин (Michael Burnett), Олег Форостенко (Arthur Marsh)-Описание: Вьетнамский ветеран Джон Рэмбо ведет уединенный образ жизни на окраине Бангкока. Уставший от борьбы и кровопролития, скрываясь от проблем, он селится в небольшом доме у реки и проводит дни, ремонтируя старые лодки и катера. Однако судьба вновь заставляет его взяться за оружие. Собрав отряд из пяти наемников, Рэмбо встает на защиту жителей тайской деревни и американских миссионеров, которых захватили в заложники бирманские боевики.-
MPAA: R - Лицам до 17 лет обязательно присутствие взрослого-Качество: DVDRip
Контейнер: AVI
Видео: 720x400 (1.80:1), 23.976 fps, XviD MPEG-4 ~1828 kbps avg, 0.26 bit/pixel
Аудио: 48 kHz, AC3 Dolby Digital, 3/2 (L,C,R,l,r) + LFE ch, ~448 kbps-Дополнительная информация
Здесь представлена Open Matte версия фильма. Наполнение кадра отличается от ранее вышедших DVD и BluRay
Сравнение - http://screenshotcomparison.com/comparison/56405/-СЭМПЛ - http://multi-up.com/938051-

Скриншоты

MediaInfo

General
Complete name : E:\Movies\Rambo 4 (2008) Open Matte.avi
Format : AVI
Format/Info : Audio Video Interleave
File size : 1.45 GiB
Duration : 1h 30mn
Overall bit rate : 2 286 Kbps
Writing application : VirtualDubMod 1.5.10.2 (build 2542/release)
Writing library : VirtualDubMod build 2542/release
Video
ID : 0
Format : MPEG-4 Visual
Format profile : Advanced Simple@L5
Format settings, BVOP : 1
Format settings, QPel : No
Format settings, GMC : No warppoints
Format settings, Matrix : Custom
Codec ID : XVID
Codec ID/Hint : XviD
Duration : 1h 30mn
Bit rate : 1 829 Kbps
Width : 720 pixels
Height : 400 pixels
Display aspect ratio : 16:9
Frame rate : 23.976 fps
Color space : YUV
Chroma subsampling : 4:2:0
Bit depth : 8 bits
Scan type : Progressive
Compression mode : Lossy
Bits/(Pixel*Frame) : 0.265
Stream size : 1.16 GiB (80%)
Writing library : XviD 65
Audio
ID : 1
Format : AC-3
Format/Info : Audio Coding 3
Mode extension : CM (complete main)
Codec ID : 2000
Duration : 1h 30mn
Bit rate mode : Constant
Bit rate : 448 Kbps
Channel(s) : 6 channels
Channel positions : Front: L C R, Side: L R, LFE
Sampling rate : 48.0 KHz
Bit depth : 16 bits
Compression mode : Lossy
Stream size : 291 MiB (20%)
Alignment : Split accross interleaves
Interleave, duration : 42 ms (1.00 video frame)
Interleave, preload duration : 500 ms
-Источник:

_________________
Показать сообщения:    

Текущее время: Сегодня 07:03

Часовой пояс: GMT



Вы не можете начинать темы
Вы не можете отвечать на сообщения
Вы не можете редактировать свои сообщения
Вы не можете удалять свои сообщения
Вы не можете голосовать в опросах
Вы не можете прикреплять файлы к сообщениям
Вы не можете скачивать файлы