Важное объявление!
У Нас Все раздачи мультитрекерные, при нуле пиров в релизах, можете смело вставать на закачку!
 
Автор Сообщение

HUNTER

Стаж:
4 года 9 месяцев
Сообщений:
65008

Репутация: 101

[+] [-]
Вне форума [Профиль] [ЛС]

Рыцарь дракона / Звездный рыцарь / El caballero del dragon / Star knight
Страна: Испания
Студия: Cinetel Films
Жанр: Фантастика, Фэнтези
Год выпуска: 1985
Продолжительность: 01:31:10
Перевод: Авторский (одноголосый закадровый) Вартан Дохалов
Cубтитры: нет
Оригинальная аудиодорожка: английский
Режиссер: Фернандо Коломо / Fernando Colomo
В ролях: Клаус Кински / Klaus Kinski, Харви Кайтел / Harvey Keitel, Фернандо Рей / Fernando Rey, Мария Ламор / Maria Lamor, Хосе Виво / Jose Vivo, Джульета Серрано / Julieta Serrano, Хосе Мария Поу / Jose Maria Pou, Сантьяго Альварес / Santiago Alvarez, Мигель Бозе / Miguel Bose
Описание: Средневековый знахарь с репутацией колдуна, святой отец с поведением профессионального интригана, наемный солдат, охваченный жаждой быть произведенным в рыцари, старый граф — владелец небольшого города и его окрестностей, его единственная дочь — главные герои этой историко-фантастической сказки.
Дополнительная информация:
Звуковая дорожка отсюда: Звездный рыцарь / Star knight (Фернандо Коломо / Fernando Colomo) [1985]
Исходный DVD скачан с КГ.
На диске перемотка только по главам из меню.
Бонусы: Фильмография, Биографии, Фотогаллерея
Доп. информация: Релиз
Меню: анимированное / озвученное
Сэмпл
IMDb
КиноПоиск
Тип релиза: DVD5
Контейнер: DVD-Video
Видео: MPEG Video, NTSC, VBR, 720x480, 4:3, 29.970 fps, ~5507,92
Аудио: Русский, AC-3, 192 Kbps, 2 channels, 48.0 KHz
Аудио 2: Английский, AC-3, 192 Kbps, 2 channels, 48.0 KHz

MediaInfo

DVD.info

General
Complete name : F:\Рыцарь дракона Звездный рыцарь El caballero del dragon Star knight (Fernando Colomo) [1985]\VIDEO_TS\VTS_01_1.VOB
Format : MPEG-PS
File size : 1 024 MiB
Duration : 24mn 15s
Overall bit rate : 5 901 Kbps
Video
ID : 224 (0xE0)
Format : MPEG Video
Format version : Version 2
Format profile : Main@Main
Format settings, BVOP : Yes
Format settings, Matrix : Custom
Format settings, GOP : M=3, N=15
Duration : 24mn 15s
Bit rate : 5 400 Kbps
Width : 720 pixels
Height : 480 pixels
Display aspect ratio : 4:3
Frame rate : 29.970 fps
Standard : NTSC
Color space : YUV
Chroma subsampling : 4:2:0
Bit depth : 8 bits
Compression mode : Lossy
Bits/(Pixel*Frame) : 0.521
Stream size : 937 MiB (92%)
Audio #1
ID : 189 (0xBD)-128 (0x80)
Format : AC-3
Format/Info : Audio Coding 3
Mode extension : CM (complete main)
Format settings, Endianness : Big
Muxing mode : DVD-Video
Duration : 24mn 15s
Bit rate mode : Constant
Bit rate : 192 Kbps
Channel count : 2 channels
Channel positions : Front: L R
Sampling rate : 48.0 KHz
Bit depth : 16 bits
Compression mode : Lossy
Stream size : 33.3 MiB (3%)
Audio #2
ID : 189 (0xBD)-129 (0x81)
Format : AC-3
Format/Info : Audio Coding 3
Mode extension : CM (complete main)
Format settings, Endianness : Big
Muxing mode : DVD-Video
Duration : 7s 264ms
Bit rate mode : Constant
Bit rate : 192 Kbps
Channel count : 2 channels
Channel positions : Front: L R
Sampling rate : 48.0 KHz
Bit depth : 16 bits
Compression mode : Lossy
Stream size : 170 KiB (0%)

Скриншоты меню

Скриншоты фильма

Скриншоты бонусов

Скриншоты использованных программ

VirtualDubMod 1.5.10.2. All inclusive - Извлечение звуковых файлов
BeSweet + BeLight - Кодирование звуковых файлов
PgcDemux 1.2.0.4 - Разборка DVD
Adobe Audition CC - Синхронизация звуковых файлов
Minnetonka SurCode for Dolby Digital - Кодирование звуковых файлов
Muxman - сборка DVD
DVDRemake Pro - реавторинг DVD
CyberLink PowerDVD - Проверка правильности расположения дорожек и субтитров, проверка работы на софтплеере
VirtualDubMod

BeSweet

PgcDemux

Minnetonka

Muxman

DVDRemake 1

DVDRemake 2

CyberLink

DVD.info исходного диска


General
Complete name : F:\Proekt\Original Star Knights\VIDEO_TS\VTS_01_1.VOB
Format : MPEG-PS
File size : 1 024 MiB
Duration : 25mn 8s
Overall bit rate : 5 692 Kbps
Video
ID : 224 (0xE0)
Format : MPEG Video
Format version : Version 2
Format profile : Main@Main
Format settings, BVOP : Yes
Format settings, Matrix : Custom
Format settings, GOP : M=3, N=15
Duration : 25mn 8s
Bit rate : 5 387 Kbps
Width : 720 pixels
Height : 480 pixels
Display aspect ratio : 4:3
Frame rate : 29.970 fps
Standard : NTSC
Color space : YUV
Chroma subsampling : 4:2:0
Bit depth : 8 bits
Compression mode : Lossy
Bits/(Pixel*Frame) : 0.520
Stream size : 969 MiB (95%)
Audio
ID : 189 (0xBD)-128 (0x80)
Format : AC-3
Format/Info : Audio Coding 3
Mode extension : CM (complete main)
Format settings, Endianness : Big
Muxing mode : DVD-Video
Duration : 25mn 8s
Bit rate mode : Constant
Bit rate : 192 Kbps
Channel count : 2 channels
Channel positions : Front: L R
Sampling rate : 48.0 KHz
Bit depth : 16 bits
Compression mode : Lossy
Stream size : 34.5 MiB (3%)

_________________
Показать сообщения:    

Текущее время: Сегодня 16:03

Часовой пояс: GMT



Вы не можете начинать темы
Вы не можете отвечать на сообщения
Вы не можете редактировать свои сообщения
Вы не можете удалять свои сообщения
Вы не можете голосовать в опросах
Вы не можете прикреплять файлы к сообщениям
Вы не можете скачивать файлы