Важное объявление!
У Нас Все раздачи мультитрекерные, при нуле пиров в релизах, можете смело вставать на закачку!
 
Автор Сообщение

HUNTER

Стаж:
4 года 7 месяцев
Сообщений:
61573

Репутация: 101

[+] [-]
Вне форума [Профиль] [ЛС]

Рыжий пес / Red Dog
Страна: Австралия, США
Жанр: драма, мелодрама, комедия, семейный
Год выпуска: 2011
Продолжительность: 01:32:18
Перевод: Профессиональный (многоголосый закадровый) R5
Перевод 2: Профессиональный (двухголосый закадровый) НТВ+
Cубтитры: русские, английские
Оригинальная аудиодорожка: английский
Режиссер: Крив Стендерс / Kriv Stenders
В ролях: Джош Лукас, Рэйчел Тейлор, Роэн Николь, Люк Форд, Артур Энджел, Джон Батчелор, Коко, Киша Касл-Хьюз, Ноа Тейлор, Лоэн Кармен
Описание: В далеком шахтерском поселке, где живут суровые и не слишком общительные люди, однажды появляется энергичный рыжий пес из породы келпи. Только ему под силу расшевелить провинциальное сонное царство. Рыжий не подчиняется никому, но его любят все. С помощью неутомимого пса многим поселенцам суждено обрести друзей, счастье, надежду и радость. А некоторым — найти любовь всей своей жизни.
Кинопоиск|Imdb|Сэмпл
Тип релиза: BDRip 1080p
Контейнер: MKV
Видео: MPEG4 Video, (H264) 1920x818 (169:72) 23.976fps 12124 Kbps
Аудио: Russian AC-3 6 ch 48.0 KHz 16 bits 448 Kbps |MVO, R5
Аудио 2: Russian AC-3 2 ch 48.0 KHz 16 bits 192 Kbps |DVO, НТВ+
Аудио 3: English DTS 6 ch 48.0 KHz 16 bits 1 509 Kbps
Аудио 4: English AC-3 2 ch 48.0 KHz 16 bits 448 Kbps
Формат субтитров: softsub (SRT)

MediaInfo

General
Unique ID : 214907665647337341209881073038172976383 (0xA1ADB5FA9579C3C485863C8D523D74FF)
Complete name : C:\Users\Вика\Desktop\Red.Dog.2011.1080p.BDRip.DTS.x264.mkv
Format : Matroska
Format version : Version 4 / Version 2
File size : 9.49 GiB
Duration : 1h 32mn
Overall bit rate : 14.7 Mbps
Encoded date : UTC 2014-07-06 08:27:46
Writing application : mkvmerge v6.9.1 ('Blue Panther') 64bit built on Apr 18 2014 18:23:38
Writing library : libebml v1.3.0 + libmatroska v1.4.1
Video
ID : 1
Format : AVC
Format/Info : Advanced Video Codec
Format profile : High@L4.1
Format settings, CABAC : Yes
Format settings, ReFrames : 5 frames
Codec ID : V_MPEG4/ISO/AVC
Duration : 1h 32mn
Bit rate : 12.1 Mbps
Width : 1 920 pixels
Height : 818 pixels
Display aspect ratio : 2.35:1
Frame rate mode : Constant
Frame rate : 23.976 fps
Color space : YUV
Chroma subsampling : 4:2:0
Bit depth : 8 bits
Scan type : Progressive
Bits/(Pixel*Frame) : 0.322
Stream size : 7.62 GiB (80%)
Writing library : x264 core 125 r2200 999b753
Encoding settings : cabac=1 / ref=5 / deblock=1:-3:-3 / analyse=0x3:0x133 / me=umh / subme=11 / psy=1 / psy_rd=1.05:0.00 / mixed_ref=1 / me_range=48 / chroma_me=1 / trellis=2 / 8x8dct=1 / cqm=0 / deadzone=21,11 / fast_pskip=0 / chroma_qp_offset=-2 / threads=12 / lookahead_threads=2 / sliced_threads=0 / nr=0 / decimate=1 / interlaced=0 / bluray_compat=0 / constrained_intra=0 / bframes=9 / b_pyramid=2 / b_adapt=2 / b_bias=0 / direct=3 / weightb=1 / open_gop=0 / weightp=2 / keyint=250 / keyint_min=23 / scenecut=40 / intra_refresh=0 / rc_lookahead=40 / rc=2pass / mbtree=0 / bitrate=12124 / ratetol=1.0 / qcomp=0.60 / qpmin=0 / qpmax=69 / qpstep=4 / cplxblur=20.0 / qblur=0.5 / vbv_maxrate=62500 / vbv_bufsize=78125 / nal_hrd=none / ip_ratio=1.40 / pb_ratio=1.30 / aq=1:0.80
Language : English
Default : Yes
Forced : No
Audio #1
ID : 2
Format : AC-3
Format/Info : Audio Coding 3
Mode extension : CM (complete main)
Format settings, Endianness : Big
Codec ID : A_AC3
Duration : 1h 32mn
Bit rate mode : Constant
Bit rate : 448 Kbps
Channel count : 6 channels
Channel positions : Front: L C R, Side: L R, LFE
Sampling rate : 48.0 KHz
Bit depth : 16 bits
Compression mode : Lossy
Stream size : 296 MiB (3%)
Title : MVO
Language : Russian
Default : Yes
Forced : No
Audio #2
ID : 3
Format : AC-3
Format/Info : Audio Coding 3
Mode extension : CM (complete main)
Format settings, Endianness : Big
Codec ID : A_AC3
Duration : 1h 32mn
Bit rate mode : Constant
Bit rate : 192 Kbps
Channel count : 2 channels
Channel positions : Front: L R
Sampling rate : 48.0 KHz
Bit depth : 16 bits
Compression mode : Lossy
Stream size : 127 MiB (1%)
Title : DVO NTV+
Language : Russian
Default : No
Forced : No
Audio #3
ID : 4
Format : DTS
Format/Info : Digital Theater Systems
Mode : 16
Format settings, Endianness : Big
Codec ID : A_DTS
Duration : 1h 32mn
Bit rate mode : Constant
Bit rate : 1 509 Kbps
Channel count : 6 channels
Channel positions : Front: L C R, Side: L R, LFE
Sampling rate : 48.0 KHz
Bit depth : 16 bits
Compression mode : Lossy
Stream size : 996 MiB (10%)
Language : English
Default : No
Forced : No
Audio #4
ID : 5
Format : AC-3
Format/Info : Audio Coding 3
Mode extension : CM (complete main)
Format settings, Endianness : Big
Codec ID : A_AC3
Duration : 1h 32mn
Bit rate mode : Constant
Bit rate : 448 Kbps
Channel count : 2 channels
Channel positions : Front: L R
Sampling rate : 48.0 KHz
Bit depth : 16 bits
Compression mode : Lossy
Stream size : 296 MiB (3%)
Title : |Commentary|
Language : English
Default : No
Forced : No
Text #1
ID : 6
Format : UTF-8
Codec ID : S_TEXT/UTF8
Codec ID/Info : UTF-8 Plain Text
Language : Russian
Default : Yes
Forced : No
Text #2
ID : 7
Format : UTF-8
Codec ID : S_TEXT/UTF8
Codec ID/Info : UTF-8 Plain Text
Language : English
Default : No
Forced : No
Text #3
ID : 8
Format : UTF-8
Codec ID : S_TEXT/UTF8
Codec ID/Info : UTF-8 Plain Text
Title : SDH
Language : English
Default : No
Forced : No
Menu
00:00:00.000 : :00:00:00.000
00:07:51.512 : :00:07:51.512
00:13:53.207 : :00:13:53.207
00:17:25.669 : :00:17:25.669
00:25:11.468 : :00:25:11.468
00:32:24.233 : :00:32:24.233
00:39:14.268 : :00:39:14.268
00:43:41.952 : :00:43:41.952
00:47:05.531 : :00:47:05.531
00:51:35.467 : :00:51:35.467
00:57:20.979 : :00:57:20.979
01:04:03.548 : :01:04:03.548
01:10:21.133 : :01:10:21.133
01:18:39.548 : :01:18:39.548
01:24:07.417 : :01:24:07.417
01:26:48.995 : :01:26:48.995

Скриншоты


_________________
Показать сообщения:    

Текущее время: Сегодня 08:04

Часовой пояс: GMT



Вы не можете начинать темы
Вы не можете отвечать на сообщения
Вы не можете редактировать свои сообщения
Вы не можете удалять свои сообщения
Вы не можете голосовать в опросах
Вы не можете прикреплять файлы к сообщениям
Вы не можете скачивать файлы
Наши партнеры: интернет магазин Ивановского трикотажа textilla.ru