Ивановский Торрент трекер
Яндекс.Погода
 

[Цитировать]
HUNTER

Рыбалка на исходе лета / Summer's End
Страна: Канада, США
Жанр: Драма
Год выпуска: 1999
Продолжительность: 01:41:19
Перевод: Профессиональный (многоголосый закадровый)
Cубтитры: нет
Оригинальная аудиодорожка: английский
Режиссер: Хелен Шейвер / Helen ShaverВ ролях: Джеймс Эрл Джонс, Джэйк Леду, Брендан Флетчер, Венди Крюсон, Джонатан Крокер, Эндрю Сарделла, Эл Уоксмен, Рэнди Хьюсон, Р.Д. Рейд, Сара Френсис-Описание: В небольшой южный поселок приезжает новый житель - врач. Единственный человек, который его принял - мальчик, недавно потерявший отца. Все остальные отнеслись к приезжему предвзято - он единственный чернокожий в округе...
Дружба Джейми с доктором Блэйкли не нравится его старшему брату, который заодно с остальными жителями. Рано или поздно мальчику придется решать, что для него главнее...
-Бонусы: 1. Фильмографии актеров 2. игра - пазл.
Тип релиза: DVD5 (Custom)
Контейнер: DVD-Video
Видео: NTSC, 4:3, 720x480, 29,970 fps, ~5000 kb/s
Аудио 1: AC3, 2/0 (L,R) ch, 192 kbps (Rus)
Аудио 2: AC3, 2/0 (L,R) ch, 224 kbps (Eng)

DVDInfo

Title: Summers End (1999) DVD5Size: 4.27 Gb ( 4 478 074,00 KBytes ) - DVD-5Enabled regions: 1, 2, 3, 4, 5, 6, 7, 8
VTS_01 : Play Length: 00:00:00+00:00:04+01:41:05+00:00:10 Video: NTSC 4:3 (720x480) VBR Audio: Russian (Dolby AC3, 2 ch) English (Dolby AC3, 2 ch)
* Menus Information *
VIDEO_TS MenuVideo: NTSC 4:3 (720x480) VBR Auto Pan&Scan, Auto LetterboxedLanguage Unit :
VTS_01 MenuVideo: NTSC 4:3 (720x480) VBRAudio: Not specified (Dolby AC3, 2 ch)English Language Unit : Root Menu

MediaInfo

ОбщееПолное имя : E:\FILMS\Summers End (1999) DVD5\VIDEO_TS\VTS_01_1.VOBФормат : MPEG-PSРазмер файла : 1024 МбайтПродолжительность : 25 м.Общий поток : 5607 Кбит/сек
ВидеоИдентификатор : 224 (0xE0)Формат : MPEG VideoВерсия формата : Version 2Профиль формата : Main@MainПараметр BVOP формата : ДаПараметр матрицы формата : По умолчаниюПараметр GOP формата : M=3, N=13Продолжительность : 25 м.Битрейт : 5080 Кбит/секШирина : 720 пикселейВысота : 480 пикселейСоотношение сторон : 4:3Частота кадров : 29,970 кадров/секСтандарт вещания : NTSCЦветовое пространство : YUVСубдискретизация насыщенности : 4:2:0Битовая глубина : 8 битМетод сжатия : С потерямиБит/(Пиксели*Кадры) : 0.490Временной код первого кадра : 00:00:00:00Оригинал временного кода : Group of pictures headerРазмер потока : 928 Мбайт (91%)Основные цвета : BT.601 PALХарактеристики трансфера : BT.470 System B, BT.470 System GКоэффициенты матрицы : BT.601
Аудио #1Идентификатор : 189 (0xBD)-128 (0x80)Формат : AC-3Формат/Информация : Audio Coding 3Расширение режима : CM (complete main)Параметр Endianness формата : BigРежим смешивания : DVD-VideoПродолжительность : 25 м.Вид битрейта : ПостоянныйБитрейт : 192 Кбит/секКаналы : 2 каналаРасположение каналов : Front: L RЧастота : 48,0 КГцБитовая глубина : 16 битМетод сжатия : С потерямиРазмер потока : 35,1 Мбайт (3%)
Аудио #2Идентификатор : 189 (0xBD)-129 (0x81)Формат : AC-3Формат/Информация : Audio Coding 3Расширение режима : CM (complete main)Параметр Endianness формата : BigРежим смешивания : DVD-VideoПродолжительность : 25 м.Вид битрейта : ПостоянныйБитрейт : 224 Кбит/секКаналы : 2 каналаРасположение каналов : Front: L RЧастота : 48,0 КГцБитовая глубина : 16 битМетод сжатия : С потерямиРазмер потока : 40,9 Мбайт (4%)
Меню

Скриншоты меню

Скриншоты


Скриншоты доп. материалов

Информация по сборке

Испанская аудиодорожка была заменена на русскую, взятую из этой раздачи. Видео не пережималось.
Используемый софт:
PgcDemux (Разборка диска)
VirtualDubMod (Извлечение звуковой дорожки из avi)
BeSweet (Распаковка звука в формат wav)
Adobe Audition (Синхронизация звука)
Minnetonka Audio (Кодирование звука в формат Dolby AC3)
MuxMan (Сборка диска)
DVDRemakePro (Реавторинг DVD)

Скриншоты программ



Показать сообщения:    

Текущее время: 15-Дек 18:04

Часовой пояс: UTC ± 0


Вы не можете начинать темы
Вы не можете отвечать на сообщения
Вы не можете редактировать свои сообщения
Вы не можете удалять свои сообщения
Вы не можете голосовать в опросах
Вы не можете прикреплять файлы к сообщениям
Вы не можете скачивать файлы

!ВНИМАНИЕ!
Сайт не предоставляет электронные версии произведений, а занимается лишь коллекционированием и каталогизацией ссылок, присылаемых и публикуемых на форуме нашими читателями. Если вы являетесь правообладателем какого-либо представленного материала и не желаете, чтобы ссылка на него находилась в нашем каталоге, свяжитесь с нами, и мы незамедлительно удалим ее. Файлы для обмена на трекере предоставлены пользователями сайта, и администрация не несет ответственности за их содержание. Просьба не заливать файлы, защищенные авторскими правами, а также файлы нелегального содержания!