Русские идут! Русские идут! / The Russians Are Coming, the Russians Are Coming (Норман Джюисон / Norman Jewison) [1966, США, комедия, военный, BDRemux 1080p] MVO + AVO (Сербин) + Original Eng + Sub Rus, Eng :: Ивановский Торрент трекер
Важное объявление!
У Нас Все раздачи мультитрекерные, при нуле пиров в релизах, можете смело вставать на закачку!
Статистика раздачи
Размер:     |    Зарегистрирован:     |    Скачан:     |   
Нет
 
     
 
 
Автор Сообщение

HUNTER

Стаж:
4 года 11 месяцев
Сообщений:
66112

Репутация: 101

[+] [-]
Вне форума [Профиль] [ЛС]

Русские идут! Русские идут! / The Russians Are Coming, the Russians Are Coming
Год выпуска: 1966
Страна: США
Жанр: комедия, военный
Продолжительность: 02:05:44
Перевод1: Профессиональный(многоголосый закадровый)(ТВ5)
Перевод2: Авторский (одноголосый закадровый)(Ю.Сербин)
Субтитры: русские, английские
Оригинальная аудиодорожка: английский
Режиссер: Норман Джюисон / Norman Jewison
В ролях: Алан Аркин, Теодор Байкел, Карл Райнер, Эва Мари Сент, Брайан Кит, Джонатан Уинтерс, Пол Форд, Тесси О'Шеа, Джон Филлип Лоу, Бен Блю, Дон Кифер, Андреа Дромм (Alan Arkin, Theodore Bikel, Carl Reiner, Eva Marie Saint, Brian Keith, Jonathan Winters, Paul Ford, Tessie O'Shea, John Phillip Law, Ben Blue, Don Keefer, Andrea Dromm)
Описание: Уморительно смешная и местами наивно трогательная комедия времен холодной войны. Наша подлодка сбилась с курса и случайно уперлась в мифический остров в штате Массачуссетс. Наши морячки малость поспорили, но потом вылезли наружу.. Сгорающий от нетерпения и любопытства шкипер Теодор Байкел посылает Элана Аркина на берег во главе отряда высадки в близлежащий город.
Все завязывается вокруг местного шерифа Брайана Кита, единственного жителя, которому удалось сохранить хладнокровие, за исключением момента, когда он поспорил с Полом Фордом, местным начальником добровольческой пожарной команды (сам себя назначил). Пожарный начал вооружаться, чтобы отразить вторжение при помощи шпаги и кепки пожарного.

Качество: BDRemux 1080p
Формат: MKV
Видео кодек: H.264
Аудио кодек: AC3, FLAC
Видео: 1920 x 1080; MPEG-4 AVC Video / 20982 kbps / 1080p / 23.976 fps / 16:9 / High Profile 4.1
Аудио1: Русский, AC3 2.0 192 Kbps 48,0 КГц(MVO TV5)
Аудио2: Русский, AC3 2.0 192 Kbps 48,0 КГц(Serbin)
Аудио3: English / FLAC / 2.0 / 48 kHz / ~367 kbps (Original)
Субтитры: Soft Sub (SRT)
Главы

MediaInfo

Общее
Уникальный идентификатор : 250257776096277895442274759273533997860 (0xBC45E4FCA37598B4AF3CD9C10AC50324)
Полное имя : D:\The.Russians.Are.Coming.the.Russians.Are.Coming.1966.BDRemux.1080p.2xRus.Eng.mkv
Формат : Matroska
Версия формата : Version 4 / Version 2
Размер файла : 19,1 Гбайт
Продолжительность : 2 ч. 5 м.
Режим общего битрейта : Переменный
Общий поток : 21,8 Мбит/сек
Название фильма : The.Russians.Are.Coming.the.Russians.Are.Coming.
Дата кодирования : UTC 2015-03-22 14:30:21
Программа кодирования : mkvmerge v6.5.0 ('Isn't she lovely') built on Oct 20 2013 12:50:05
Библиотека кодирования : libebml v1.3.0 + libmatroska v1.4.1
Видео
Идентификатор : 1
Формат : AVC
Формат/Информация : Advanced Video Codec
Профиль формата : High@L4.1
Параметр CABAC формата : Да
Параметр ReFrames формата : 4 кадра
Идентификатор кодека : V_MPEG4/ISO/AVC
Продолжительность : 2 ч. 5 м.
Вид битрейта : Переменный
Максимальный битрейт : 35,0 Мбит/сек
Ширина : 1920 пикселей
Высота : 1080 пикселей
Соотношение сторон : 16:9
Режим частоты кадров : Постоянный
Частота кадров : 23,976 кадра/сек
Стандарт вещания : NTSC
Цветовое пространство : YUV
Субдискретизация насыщенности : 4:2:0
Битовая глубина : 8 бит
Тип развёртки : Прогрессивная
Заголовок : The.Russians.Are.Coming.the.Russians.Are.Coming.1966.COMPLETE.BLURAY-PCH
Default : Нет
Forced : Нет
Основные цвета : BT.709
Характеристики трансфера : BT.709
Коэффициенты матрицы : BT.709
Аудио #1
Идентификатор : 2
Формат : AC-3
Формат/Информация : Audio Coding 3
Расширение режима : CM (complete main)
Параметр Endianness формата : Big
Идентификатор кодека : A_AC3
Продолжительность : 2 ч. 5 м.
Вид битрейта : Постоянный
Битрейт : 192 Кбит/сек
Каналы : 2 канала
Расположение каналов : Front: L R
Частота : 48,0 КГц
Битовая глубина : 16 бит
Метод сжатия : С потерями
Размер потока : 173 Мбайт (1%)
Заголовок : MVO TV5 AC3 2.0 192 kbps
Язык : Russian
Default : Нет
Forced : Нет
Аудио #2
Идентификатор : 3
Формат : AC-3
Формат/Информация : Audio Coding 3
Расширение режима : CM (complete main)
Параметр Endianness формата : Big
Идентификатор кодека : A_AC3
Продолжительность : 2 ч. 5 м.
Вид битрейта : Постоянный
Битрейт : 192 Кбит/сек
Каналы : 2 канала
Расположение каналов : Front: L R
Частота : 48,0 КГц
Битовая глубина : 16 бит
Метод сжатия : С потерями
Размер потока : 173 Мбайт (1%)
Заголовок : Serbin AC3 2.0 192 kbps
Язык : Russian
Default : Нет
Forced : Нет
Аудио #3
Идентификатор : 4
Формат : FLAC
Формат/Информация : Free Lossless Audio Codec
Идентификатор кодека : A_FLAC
Продолжительность : 2 ч. 5 м.
Вид битрейта : Переменный
Каналы : 2 канала
Частота : 48,0 КГц
Битовая глубина : 16 бит
Заголовок : Original FLAC 2.0 ~367 kbps
Библиотека кодирования : libFLAC 1.2.1 (UTC 2007-09-17)
Язык : English
Default : Нет
Forced : Нет
Текст #1
Идентификатор : 5
Формат : UTF-8
Идентификатор кодека : S_TEXT/UTF8
Идентификатор кодека/Информация : UTF-8 Plain Text
Язык : Russian
Default : Нет
Forced : Нет
Текст #2
Идентификатор : 6
Формат : UTF-8
Идентификатор кодека : S_TEXT/UTF8
Идентификатор кодека/Информация : UTF-8 Plain Text
Язык : English
Default : Нет
Forced : Нет
Меню
00:00:00.000 : en:00:00:00.000
00:23:01.630 : en:00:23:01.630
00:42:15.908 : en:00:42:15.908
00:55:45.050 : en:00:55:45.050
01:08:48.291 : en:01:08:48.291
01:20:55.142 : en:01:20:55.142
01:32:43.308 : en:01:32:43.308
01:41:59.155 : en:01:41:59.155

Скриншоты


_________________
Показать сообщения:    

Текущее время: Сегодня 05:38

Часовой пояс: GMT



Вы не можете начинать темы
Вы не можете отвечать на сообщения
Вы не можете редактировать свои сообщения
Вы не можете удалять свои сообщения
Вы не можете голосовать в опросах
Вы не можете прикреплять файлы к сообщениям
Вы не можете скачивать файлы