Ивановский Торрент трекер
Яндекс.Погода
 

[Цитировать]
HUNTER


Русалочка: Начало истории Ариэль
The Little Mermaid: Ariel's Beginning
-

  • Год производства: 2008

  • Страна: США

  • Жанр: мультфильм, фэнтези, семейный

  • Продолжительность: 01:17:30

  • Перевод: Профессиональный (полное дублирование)

  • Субтитры: Отсутствуют-
  • Режиссер: Пегги Холмс / Peggy Holmes
    -
  • Описание: Представьте далекие времена, задолго до того, как Ариэль познакомилась с Принцем Эриком и вышла на сушу — времена, когда музыка была еще под запретом в подводном королевсте Атлантики. Разрываясь между семейными обязанностями и любовью к музыке, Ариэль должна сделать самый трудный выбор в своей жизни.
    -
  • Исходник: Blu-ray disc 1080p

  • Качество видео: BDRip 1080p

  • Формат видео: mkv

  • Видео кодек: H264

  • Аудио кодек: AC3

  • Видео: 1920x1080 (16:9), 23.976 fps, 12.2 Mbps, 0.245 bit/pixel

  • Аудио: 48 kHz, AC3 6 ch ~384 kbps avg-
  • Автор рипа: falco
-

Доп. информация

Скриншоты

Скриншоты

MediaInfo

Код: copyText_writeLink('this.parentNode.parentNode.nextSibling.nextSibling');
General
Unique ID : 195962217001005969079694332953575681044 (0x936CF33E47CD738BA78858C21E35EC14)
Complete name : D:\Торенты\The.Little.Mermaid.Ariel's.Beginning.2008.BDRip.1080p.falco.mkv
Format : Matroska
Format version : Version 4 / Version 2
File size : 6.81 GiB
Duration : 1h 17mn
Overall bit rate : 12.6 Mbps
Encoded date : UTC 2013-09-27 03:20:23
Writing application : mkvmerge v6.4.1 ('Omega Point') built on Sep 16 2013 22:05:10
Writing library : libebml v1.3.0 + libmatroska v1.4.1
Video
ID : 1
Format : AVC
Format/Info : Advanced Video Codec
Format profile : Main@L4.1
Format settings, CABAC : Yes
Format settings, ReFrames : 4 frames
Codec ID : V_MPEG4/ISO/AVC
Duration : 1h 17mn
Bit rate : 12.2 Mbps
Width : 1 920 pixels
Height : 1 080 pixels
Display aspect ratio : 16:9
Frame rate : 23.976 fps
Color space : YUV
Chroma subsampling : 4:2:0
Bit depth : 8 bits
Scan type : Progressive
Bits/(Pixel*Frame) : 0.245
Stream size : 6.46 GiB (95%)
Writing library : x264 core 130 r2273 b3065e6
Encoding settings : cabac=1 / ref=4 / deblock=1:-3:-3 / analyse=0x1:0x131 / me=umh / subme=10 / psy=1 / psy_rd=1.00:0.00 / mixed_ref=1 / me_range=16 / chroma_me=1 / trellis=2 / 8x8dct=0 / cqm=0 / deadzone=21,11 / fast_pskip=0 / chroma_qp_offset=-4 / threads=6 / lookahead_threads=1 / sliced_threads=0 / nr=0 / decimate=0 / interlaced=0 / bluray_compat=0 / constrained_intra=0 / bframes=4 / b_pyramid=2 / b_adapt=0 / b_bias=0 / direct=3 / weightb=1 / open_gop=0 / weightp=2 / keyint=250 / keyint_min=23 / scenecut=40 / intra_refresh=0 / rc_lookahead=50 / rc=2pass / mbtree=1 / bitrate=12186 / ratetol=1.0 / qcomp=0.60 / qpmin=0 / qpmax=69 / qpstep=4 / cplxblur=20.0 / qblur=0.5 / ip_ratio=1.40 / aq=1:1.00
Default : Yes
Forced : No
Audio
ID : 2
Format : AC-3
Format/Info : Audio Coding 3
Mode extension : CM (complete main)
Format settings, Endianness : Big
Codec ID : A_AC3
Duration : 1h 17mn
Bit rate mode : Constant
Bit rate : 384 Kbps
Channel(s) : 6 channels
Channel positions : Front: L C R, Side: L R, LFE
Sampling rate : 48.0 KHz
Bit depth : 16 bits
Compression mode : Lossy
Stream size : 213 MiB (3%)
Title : Дубляж
Language : Russian
Default : Yes
Forced : No
Показать сообщения:    

Текущее время: 19-Окт 16:55

Часовой пояс: UTC - 1


Вы не можете начинать темы
Вы не можете отвечать на сообщения
Вы не можете редактировать свои сообщения
Вы не можете удалять свои сообщения
Вы не можете голосовать в опросах
Вы не можете прикреплять файлы к сообщениям
Вы не можете скачивать файлы

!ВНИМАНИЕ!
Сайт не предоставляет электронные версии произведений, а занимается лишь коллекционированием и каталогизацией ссылок, присылаемых и публикуемых на форуме нашими читателями. Если вы являетесь правообладателем какого-либо представленного материала и не желаете, чтобы ссылка на него находилась в нашем каталоге, свяжитесь с нами, и мы незамедлительно удалим ее. Файлы для обмена на трекере предоставлены пользователями сайта, и администрация не несет ответственности за их содержание. Просьба не заливать файлы, защищенные авторскими правами, а также файлы нелегального содержания!