Важное объявление!
У Нас Все раздачи мультитрекерные, при нуле пиров в релизах, можете смело вставать на закачку!
 
Автор Сообщение

palych74

Стаж:
4 года 7 месяцев
Сообщений:
80

Репутация: 21

[+] [-]
Вне форума [Профиль] [ЛС]

Русалка
Год выпуска: 2012
Производство: "ПАЛАМЕДА"
Жанр: Мелодрама
Продолжительность: 00:44:00
Субтитры: Нет--Режиссёр: Вадим Арапов--В ролях: Елена Шилова, Павел Южаков-Харланчук, Святослав Астрамович, Анна Носатова, Анатолий Котенёв, Татьяна Лютаева, Александр Ефремов, Анатолий Голуб--Описание: Они такие разные: Наташа - обычная деревенская девушка, а Олег - сын хозяина главного предприятия всей округи. Но случай свел их вместе, и они полюбили друг друга, несмотря ни на что. Но происходит непредвиденное - отец Олега увязает в долгах. Единственный шанс спасти предприятие - женить сына на дочери кредитора. Для Наташи утерян смысл жизни. Она решает наложить на себя руки. Но в критический момент ее спасает сводный брат Олега. Он говорит Наташе, что отныне она - его жена. Вскоре выясняется, что Наташа беременна...--Сэмпл: http://multi-up.com/758008--Качество: SATRip
Формат: AVI
Видео кодек: DivX
Аудио кодек: MP3
Видео: 704x400 (1.76:1), 25 fps, DivX 5 ~1500 kbps avg, 0.21 bit/pixel
Аудио: 48 kHz, MPEG Layer 3, 2 ch, ~128.00 kbps avg

Реклама отсутствует!

MI

General
Complete name : I:\ЗАКАЧКИ\Rusalka(4.serii.iz.4)\Rusalka(1.serija.iz.4).2012.DivX.SATRip.avi
Format : AVI
Format/Info : Audio Video Interleave
File size : 381 MiB
Duration : 32mn 25s
Overall bit rate : 1 642 Kbps
Writing library : Boilsoft AVI tool build 1/release
Video
ID : 0
Format : MPEG-4 Visual
Format profile : Simple@L3
Format settings, BVOP : 1
Format settings, QPel : No
Format settings, GMC : No warppoints
Format settings, Matrix : Default (H.263)
Codec ID : DX50
Codec ID/Hint : DivX 5
Duration : 32mn 25s
Bit rate : 1 501 Kbps
Width : 704 pixels
Height : 400 pixels
Display aspect ratio : 16:9
Frame rate : 25.000 fps
Color space : YUV
Chroma subsampling : 4:2:0
Bit depth : 8 bits
Scan type : Progressive
Compression mode : Lossy
Bits/(Pixel*Frame) : 0.213
Stream size : 348 MiB (91%)
Writing library : XviD 1.2.1 (UTC 2008-12-04)
Audio
ID : 1
Format : MPEG Audio
Format version : Version 1
Format profile : Layer 3
Mode : Joint stereo
Mode extension : MS Stereo
Codec ID : 55
Codec ID/Hint : MP3
Duration : 32mn 25s
Bit rate mode : Constant
Bit rate : 128 Kbps
Channel(s) : 2 channels
Sampling rate : 48.0 KHz
Compression mode : Lossy
Stream size : 29.7 MiB (8%)
Alignment : Aligned on interleaves
Interleave, duration : 24 ms (0.60 video frame)
Interleave, preload duration : 504 ms
Показать сообщения:    

Текущее время: Сегодня 02:38

Часовой пояс: GMT



Вы не можете начинать темы
Вы не можете отвечать на сообщения
Вы не можете редактировать свои сообщения
Вы не можете удалять свои сообщения
Вы не можете голосовать в опросах
Вы не можете прикреплять файлы к сообщениям
Вы не можете скачивать файлы
Наши партнеры: интернет магазин Ивановского трикотажа textilla.ru