Ивановский Торрент трекер
Яндекс.Погода
 

[Цитировать]
HUNTER

-Русалка
Mei ren yu
The Mermaid
- Год выпуска: 2016
Страна: Китай (Edko Films, The Star Overseas, China Film, Hehe (Shanghai) Film, ...)
Жанр: Фэнтези, Комедия, Мелодрама
Продолжительность: 01:33:46
Перевод: Одноголосый закадровый - Вячеслав Замез
Режиссер: Стивен Чоу / Stephen Chow-В ролях: Чао Ден (Liu Xuan), Юнь Линь (Shan), Шоу Луо (Octopus), Юки Чжан (Ruolan), Пьер Бурдо (The Auctioneer), Кэ Бай, Lianshun Kong, Иван Котик (George), Yang Neng, Li Shangzheng, Цуй Харк (Si Ye)-Описание: Русалочка по имени Шен отправляется на миссию по соблазнению и убийству промышленника Лю Сюаня, который загрязняет океаны, убивая в них жизнь.-Доп. инфо: Самый кассовый китайский фильм.
Русская дорога получена вставкой блоков фраз с дороги Замеза в центральный канал оригинальной.-Премьера (мир): 8 февраля 2016
Бюджет: $60 720 000
Кассовые сборы: $553 810 228

. .
-Качество: BDRip (by Ash61)
Контейнер: MKV
Формат 3D: Half OverUnder / Вертикальная анаморфная стереопара
Порядок ракурсов: левый ракурс первый-Видео: AVC / 1920х1080p / 23,976 fps / 16.8 Mbps
Аудио:
#1 - Русский / AC3 / 48 KHz / 5.1 ch / 640 Kbps (VO - Zamez) [монтаж в 5.1 - Ash61]
#2 - Китайский / AC3 / 48 KHz / 5.1 ch / 640 Kbps (Original - BD 3D)
Субтитры (внешние SRT UTF-8): English Full

MediaInfo

General
Unique ID : 252173869742501688229492807573996092082 (0xBDB6EBB287CDF52DA4EEB39D761CBAB2)
Complete name : E:\TheMermaid(2016)3D-halfOU(Ash61)VO-Zamez\TheMermaid(2016)3D-halfOU(Ash61)VO-Zamez.mkv
Format : Matroska
Format version : Version 2
File size : 12.1 GiB
Duration : 1h 33mn
Overall bit rate : 18.5 Mbps
Movie name : Русалка / Mei ren yu / The Mermaid (2016) в 3Д
Encoded date : UTC 2016-06-01 19:59:35
Writing application : mkvmerge v5.8.0 ('No Sleep / Pillow') built on Sep 2 2012 15:37:04
Writing library : libebml v1.2.3 + libmatroska v1.3.0
Video
ID : 1
Format : AVC
Format/Info : Advanced Video Codec
Format profile : High@L4.1
Format settings, CABAC : Yes
Format settings, ReFrames : 4 frames
Codec ID : V_MPEG4/ISO/AVC
Duration : 1h 33mn
Bit rate : 16.8 Mbps
Width : 1 920 pixels
Height : 1 080 pixels
Display aspect ratio : 16:9
Frame rate mode : Constant
Frame rate : 23.976 fps
Color space : YUV
Chroma subsampling : 4:2:0
Bit depth : 8 bits
Scan type : Progressive
Bits/(Pixel*Frame) : 0.339
Stream size : 11.0 GiB (91%)
Title : BDRip by Ash61
Writing library : x264 core 146 r2538 121396c
Encoding settings : cabac=1 / ref=4 / deblock=1:-3:-3 / analyse=0x3:0x113 / me=umh / subme=10 / psy=1 / psy_rd=1.00:0.00 / mixed_ref=1 / me_range=32 / chroma_me=1 / trellis=2 / 8x8dct=1 / cqm=0 / deadzone=21,11 / fast_pskip=1 / chroma_qp_offset=-2 / threads=12 / lookahead_threads=3 / sliced_threads=0 / nr=0 / decimate=1 / interlaced=0 / bluray_compat=0 / constrained_intra=0 / bframes=10 / b_pyramid=2 / b_adapt=2 / b_bias=0 / direct=3 / weightb=1 / open_gop=0 / weightp=2 / keyint=250 / keyint_min=23 / scenecut=40 / intra_refresh=0 / rc_lookahead=60 / rc=crf / mbtree=1 / crf=18.0 / qcomp=0.70 / qpmin=0 / qpmax=69 / qpstep=4 / vbv_maxrate=40000 / vbv_bufsize=30000 / crf_max=0.0 / nal_hrd=none / filler=0 / frame-packing=4 / ip_ratio=1.40 / aq=1:0.70
Language : Chinese
Default : Yes
Forced : No
Audio #1
ID : 2
Format : AC-3
Format/Info : Audio Coding 3
Mode extension : CM (complete main)
Format settings, Endianness : Big
Codec ID : A_AC3
Duration : 1h 33mn
Bit rate mode : Constant
Bit rate : 640 Kbps
Channel(s) : 6 channels
Channel positions : Front: L C R, Side: L R, LFE
Sampling rate : 48.0 KHz
Bit depth : 16 bits
Compression mode : Lossy
Stream size : 429 MiB (3%)
Title : Одноголосый закадровый - В.Замез (монтаж в 5.1 - Ash61)
Language : Russian
Default : Yes
Forced : No
Audio #2
ID : 3
Format : AC-3
Format/Info : Audio Coding 3
Mode extension : CM (complete main)
Format settings, Endianness : Big
Codec ID : A_AC3
Duration : 1h 33mn
Bit rate mode : Constant
Bit rate : 640 Kbps
Channel(s) : 6 channels
Channel positions : Front: L C R, Side: L R, LFE
Sampling rate : 48.0 KHz
Bit depth : 16 bits
Compression mode : Lossy
Stream size : 429 MiB (3%)
Title : Original - BD 3D
Language : Chinese
Default : No
Forced : No
Menu
00:00:00.000 : :1
00:06:15.625 : :2
00:15:11.077 : :3
00:23:16.186 : :4
00:30:53.977 : :5
00:40:44.692 : :6
00:47:27.511 : :7
00:55:52.057 : :8
00:59:46.291 : :9
01:09:14.984 : :10
01:17:51.959 : :11
01:25:13.108 : :12

Для оценки 3Д - Анимированные скрины






















Показать сообщения:    

Текущее время: 11-Дек 19:16

Часовой пояс: UTC ± 0


Вы не можете начинать темы
Вы не можете отвечать на сообщения
Вы не можете редактировать свои сообщения
Вы не можете удалять свои сообщения
Вы не можете голосовать в опросах
Вы не можете прикреплять файлы к сообщениям
Вы не можете скачивать файлы

!ВНИМАНИЕ!
Сайт не предоставляет электронные версии произведений, а занимается лишь коллекционированием и каталогизацией ссылок, присылаемых и публикуемых на форуме нашими читателями. Если вы являетесь правообладателем какого-либо представленного материала и не желаете, чтобы ссылка на него находилась в нашем каталоге, свяжитесь с нами, и мы незамедлительно удалим ее. Файлы для обмена на трекере предоставлены пользователями сайта, и администрация не несет ответственности за их содержание. Просьба не заливать файлы, защищенные авторскими правами, а также файлы нелегального содержания!