Важное объявление!
У Нас Все раздачи мультитрекерные, при нуле пиров в релизах, можете смело вставать на закачку!
Статистика раздачи
Размер:     |    Зарегистрирован:     |    Скачан:     |   
Нет
 
     
 
 
Автор Сообщение

HUNTER

Стаж:
5 лет
Сообщений:
67979

Репутация: 101

[+] [-]
Вне форума [Профиль] [ЛС]

Руководство по укладке керамической плитки / How-To Guide to Ceramic Tile
Страна: USA
Тематика: Ремонт
Тип раздаваемого материала: Видеоурок
Продолжительность: 1:46:00
Год выпуска: 2004
Язык: Английский
Перевод: Отсутствует-Описание: Тема укладки керамической плитки не раз поднималась на Рутрекере. Поставить все точки над i поможет DVD от Дина Джонсона ведущего DIY шоу Hometime. Где он со своей очаровательной со-ведущей кладет плитку на кухне и в ванной на стены полы и столешницы.-Качество: DVDRip
Формат: AVI
Видео кодек: XviD
Аудио кодек: MP3

MediaInfo

Формат : AVIФормат/Информация : Audio Video InterleaveПрофиль формата : OpenDMLНастройки формата : recРазмер файла : 698 МбайтПродолжительность : 1 ч. 46 м.Режим общего битрейта : ПеременныйОбщий поток : 915 Кбит/секПрограмма кодирования : AVI-Mux GUI 1.17, Jul 1 2005 11:32:32
ВидеоИдентификатор : 0Формат : MPEG-4 VisualПрофиль формата : Simple@L3Параметр BVOP формата : 3Параметр QPel формата : НетПараметр GMC формата : Без точки переходаПараметр матрицы формата : Default (H.263)Режим смешивания : Сжатый битовый потокИдентификатор кодека : XVIDИдентификатор кодека/Подсказка : XviDПродолжительность : 1 ч. 46 м.Битрейт : 846 Кбит/секШирина : 512 пикселейВысота : 384 пикселяСоотношение сторон : 4:3Частота кадров : 29,970 кадров/секЦветовое пространство : YUVСубдискретизация насыщенности : 4:2:0Битовая глубина : 8 битТип развёртки : ПрогрессивнаяМетод сжатия : С потерямиБит/(Пиксели*Кадры) : 0.144Размер потока : 645 Мбайт (92%)Библиотека кодирования : XviD 1.1.0 Beta2 (UTC 2005-04-04)
АудиоИдентификатор : 1Формат : MPEG AudioВерсия формата : Version 1Профиль формата : Layer 3Идентификатор кодека : 55Идентификатор кодека/Подсказка : MP3Продолжительность : 1 ч. 46 м.Вид битрейта : ПеременныйБитрейт : 60,2 Кбит/секМинимальный битрейт : 32,0 Кбит/секКаналы : 1 каналЧастота : 48,0 КГцМетод сжатия : С потерямиРазмер потока : 45,9 Мбайт (7%)Выравнивание : Соединение по промежуткамПродолжительность промежутка : 24 мс. (0,72 видеокадр)Время предзагрузки промежутка : 204 мс.Заголовок : 1.wavБиблиотека кодирования : LAME3.96rНастройки программы : -m m -V 6 -q 3 -lowpass 16 --vbr-old -b 32

Скриншоты


_________________
Показать сообщения:    

Текущее время: Сегодня 02:50

Часовой пояс: GMT



Вы не можете начинать темы
Вы не можете отвечать на сообщения
Вы не можете редактировать свои сообщения
Вы не можете удалять свои сообщения
Вы не можете голосовать в опросах
Вы не можете прикреплять файлы к сообщениям
Вы не можете скачивать файлы