Ивановский Торрент трекер
Яндекс.Погода
 

[Цитировать]
HUNTER

Руби / Ruby
Страна: США
Жанр: ужасы
Год выпуска: 1977
Продолжительность: 1.24.20
Перевод: Авторский (одноголосый закадровый) Дольский
Cубтитры: нет
Оригинальная аудиодорожка: английский
Режиссер: Кёртис Харрингтон / Curtis Harrington, Стефани Ротман / Stephanie Rothman
В ролях: Пайпер Лори, Стюарт Уитман, Роджер Дэвис, Джанит Болдуин
Описание: Тридцатые годы двадцатого века. Гангстер Никки Рокко тонет в болоте. Его беременная подруга Руби наблюдает за мучительной смертью. Своими последними словами Никки обвиняет ее в том, что она «подставила» его. Проходит двадцать лет. Руби теперь владелица небольшого уютного кинотеатра, а члены бывшей банды мужа работают на нее. Ребенок, которого она родила в ту роковую ночь, стал шестнадцатилетней немой девушкой Лесли. Вскоре начинают происходить странные события. Работники кинотеатра умирают необычными способами. Вскоре Лесли начинает говорить голосом своего умершего отца…
Очевидное подражание картине «Изгоняющий дьявола» (1973), откуда даже был взят и переработан эпизод с ползущим пауком. Кертис Хэррингтон был уволен посредине съемочного процесса из-за конфликта с продюсерами. Стефани Ротман досняла много эпизодов для телевизионной версии фильма, что способствовало его коммерческому успеху. Она была продюсером и сценаристом таких картин, как «Путешествие на планету доисторических женщин» (1965), «Кровавая королева» (1966), «Бадья крови» (1966), «Газ» (1970), «Медсестры-студентки» (1970), «Бархатный вампир» (1971), «Остров-тюрьма» (1973).
Доп. информация: За русскую звуковую дорожку большое спасибо Geronimo
Спасибо:
При пересборе двд были использованы программы:
PgcDemux - разделение компонентов диска на файлы
Muxman - мультиплексирование и авторинг DVD
VobBlanker - реавторинг DVD

Скрин завершения проекта

Бонусы: Биографии, коиентарии, интервью, галерея, трейлер.
Сэмпл: http://sendfile.su/1081106
Тип релиза: DVD9 (Custom)
Контейнер: DVD-Video
Видео: NTSC 4:3 (704x480) VBR
Аудио: Russian (Dolby AC3, 192 Кбит/сек, 2 ch)
Аудио 2: English (Dolby AC3, 192 Кбит/сек, 2 ch)
Аудио 3: English (Dolby AC3, 192 Кбит/сек, 2 ch) (коментарии)

DVDInfo

Size: 7.21 Gb ( 7 556 438 KBytes ) - DVD-9
Enabled regions: 1, 2, 3, 4, 5, 6, 7, 8
VTS_01 :
Play Length: 00:00:41+01:24:20+00:02:19+00:58:48+00:00:01+00:00:56
Video: NTSC 4:3 (704x480) VBR
Audio:
Russian (Dolby AC3, 2 ch)
English (Dolby AC3, 2 ch)
Not specified (Dolby AC3, 2 ch)
Menu Video:
NTSC 4:3 (720x480) VBR
Menu Subtitles:
Not specified
Menu English Language Unit :
Root Menu

MediaInfo

Общее
Полное имя : J:\Rubi_1977\VIDEO_TS\VTS_01_1.VOB
Формат : MPEG-PS
Размер файла : 1024 Мбайт
Продолжительность : 21 м.
Общий поток : 6555 Кбит/сек
Видео
Идентификатор : 224 (0xE0)
Формат : MPEG Video
Версия формата : Version 2
Профиль формата : Main@Main
Параметр BVOP формата : Да
Параметр матрицы формата : По умолчанию
Продолжительность : 21 м.
Битрейт : 5849 Кбит/сек
Максимальный битрейт : 7000 Кбит/сек
Ширина : 720 пикселей
Высота : 480 пикселей
Соотношение сторон : 4:3
Частота кадров : 29,970 кадров/сек
Стандарт вещания : NTSC
Цветовое пространство : YUV
Субдискретизация насыщенности : 4:2:0
Битовая глубина : 8 бит
Тип развёртки : Чересстрочная
Порядок развёртки : Верхнее поле первое
Метод сжатия : С потерями
Бит/(Пиксели*Кадры) : 0.565
Размер потока : 914 Мбайт (89%)
Основные цвета : BT.601 NTSC
Характеристики трансфера : BT.601
Коэффициенты матрицы : BT.601
Аудио #1
Идентификатор : 189 (0xBD)-128 (0x80)
Формат : AC-3
Формат/Информация : Audio Coding 3
Расширение режима : CM (complete main)
Параметр Endianness формата : Big
Режим смешивания : DVD-Video
Продолжительность : 5 с. 664 мс.
Вид битрейта : Постоянный
Битрейт : 192 Кбит/сек
Каналы : 2 канала
Расположение каналов : Front: L R
Частота : 48,0 КГц
Битовая глубина : 16 бит
Метод сжатия : С потерями
Размер потока : 133 Кбайт (0%)
Аудио #2
Идентификатор : 189 (0xBD)-129 (0x81)
Формат : AC-3
Формат/Информация : Audio Coding 3
Расширение режима : CM (complete main)
Параметр Endianness формата : Big
Режим смешивания : DVD-Video
Продолжительность : 5 с. 664 мс.
Вид битрейта : Постоянный
Битрейт : 192 Кбит/сек
Каналы : 2 канала
Расположение каналов : Front: L R
Частота : 48,0 КГц
Битовая глубина : 16 бит
Метод сжатия : С потерями
Размер потока : 133 Кбайт (0%)
Аудио #3
Идентификатор : 189 (0xBD)-130 (0x82)
Формат : AC-3
Формат/Информация : Audio Coding 3
Расширение режима : CM (complete main)
Параметр Endianness формата : Big
Режим смешивания : DVD-Video
Продолжительность : 5 с. 664 мс.
Вид битрейта : Постоянный
Битрейт : 192 Кбит/сек
Каналы : 2 канала
Расположение каналов : Front: L R
Частота : 48,0 КГц
Битовая глубина : 16 бит
Метод сжатия : С потерями
Размер потока : 133 Кбайт (0%)
Меню

Постеры

Скриншоты меню

Скриншоты

Показать сообщения:    

Текущее время: 17-Окт 10:30

Часовой пояс: UTC - 1


Вы не можете начинать темы
Вы не можете отвечать на сообщения
Вы не можете редактировать свои сообщения
Вы не можете удалять свои сообщения
Вы не можете голосовать в опросах
Вы не можете прикреплять файлы к сообщениям
Вы не можете скачивать файлы

!ВНИМАНИЕ!
Сайт не предоставляет электронные версии произведений, а занимается лишь коллекционированием и каталогизацией ссылок, присылаемых и публикуемых на форуме нашими читателями. Если вы являетесь правообладателем какого-либо представленного материала и не желаете, чтобы ссылка на него находилась в нашем каталоге, свяжитесь с нами, и мы незамедлительно удалим ее. Файлы для обмена на трекере предоставлены пользователями сайта, и администрация не несет ответственности за их содержание. Просьба не заливать файлы, защищенные авторскими правами, а также файлы нелегального содержания!