Руби Спаркс / Ruby Sparks (Джонатан Дэйтон, Валери Фэрис) [2012, фэнтези, мелодрама, комедия, DVD9] :: Ивановский Торрент трекер
Важное объявление!
У Нас Все раздачи мультитрекерные, при нуле пиров в релизах, можете смело вставать на закачку!
Статистика раздачи
Размер:     |    Зарегистрирован:     |    Скачан:     |   
Нет
 
     
 
 
Автор Сообщение

HUNTER

Стаж:
4 года 11 месяцев
Сообщений:
66054

Репутация: 101

[+] [-]
Вне форума [Профиль] [ЛС]

Руби Спаркс / Ruby Sparks-«Невероятная история любви, ставшая реальностью»-
Год выпуска: 2012
Страна: США
Жанр: фэнтези, мелодрама, комедия
Продолжительность: 00:19:33
Cубтитры: English, Dansk, Suomi, Italiano, Norsk, Russian, Svenska, Estonian, Latvian, Lithuanian, Ukrainian, Italiano, Russian
Перевод: Профессиональный (дублированный) [лицензия]-Режиссер: Джонатан Дэйтон, Валери Фэрис
Сценарий: Зои Казан-В ролях: Пол Дано / Paul Dano (Calvin Weir-Fields), Зои Казан / Zoe Kazan (Ruby Sparks), Антонио Бандерас / Antonio Banderas (Mort), Аннетт Бенинг / Annette Bening (Gertrude), Стив Куган / Steve Coogan (Langdon Tharp), Эллиот Гулд / Elliott Gould (Dr. Rosenthal), Крис Мессина / Chris Messina (Harry), Аасиф Мандви / Aasif Mandvi (Cyrus Modi), Тони Тракс / Toni Trucks (Susie), Дебора Энн Уолл / Deborah Ann Woll (Lila)-Описание: Молодой, но уже успешный писатель переживает творческие и душевные муки: новый роман никак не выходит, музы все нет, да и вообще с девушками как-то не клеится. И вот, призвав на помощь остатки своей фантазии, Кэлвин придумывает себе девушку по имени Руби Спаркс — умницу, красавицу, спортсменку, короче говоря, идеал, а спустя неделю… обнаруживает этот идеал из плоти и крови на своем собственном диване. Уходить Руби явно не собирается, но вот кем она окажется — Галатеей или Белочкой?..-Сборы в США: $2 540 106
Сборы в мире: + $3 931 768 = $6 471 874
Сборы в России: $356 622
Премьера (мир): 25 июля 2012, ...
Премьера (РФ): 27 сентября 2012, «Двадцатый Век Фокс СНГ»
Релиз на DVD: 31 января 2013, «Двадцатый Век Фокс СНГ», ...
Рейтинг MPAA: Лицам до 17 лет обязательно присутствие взрослого-Качество: DVD9
Формат: MPEG-PS
Видео кодек: MPEG-2 Video
Аудио кодек: AC3
Видео: 720x576 (16:9), 25.000 fps, MPEG-2 Video, 5 574 Kbps
Аудио: English: AC3, 448 Kbps, 48.0 KHz, 6 ch
English: AC3, 384 Kbps, 48.0 KHz, 6 ch
Russian: AC3, 384 Kbps, 48.0 KHz, 6 ch
Italiano: AC3, 384 Kbps, 48.0 KHz, 6 ch-

Знаете ли Вы, что...

☭ Зои Казан, исполнившая роль Руби, так же написала сценарий к фильму. Дедушка Зои — Элиа Казан, режиссер фильма «В порту» (1954). Ее мать написала сценарий для фильма «Загадочная история Бенджамина Баттона» (2008). А ее отец — сценарист фильма «Изнанка судьбы» (1990).
☭ Всякий раз, когда Пол нес Зои на плече, ее подменял дублер.

МедиаИнфо

Код: copyText_writeLink('this.parentNode.parentNode.nextSibling.nextSibling'); General
Complete name : VTS_01_1.VOB
Format : MPEG-PS
File size : 1 024 MiB
Duration : 19mn 33s
Overall bit rate : 7 320 Kbps
Video
ID : 224 (0xE0)
Format : MPEG Video
Format version : Version 2
Format profile : Main@Main
Format settings, BVOP : Yes
Format settings, Matrix : Default
Duration : 19mn 33s
Bit rate mode : Variable
Bit rate : 5 574 Kbps
Nominal bit rate : 9 800 Kbps
Width : 720 pixels
Height : 576 pixels
Display aspect ratio : 16:9
Frame rate : 25.000 fps
Standard : PAL
Color space : YUV
Chroma subsampling : 4:2:0
Bit depth : 8 bits
Scan type : Interlaced
Scan order : Top Field First
Bits/(Pixel*Frame) : 0.538
Stream size : 780 MiB (76%)
Audio #1
ID : 128 (0x80)
Format : AC-3
Format/Info : Audio Coding 3
Mode extension : CM (complete main)
Duration : 19mn 33s
Bit rate mode : Constant
Bit rate : 448 Kbps
Channel(s) : 6 channels
Channel positions : Front: L C R, Side: L R, LFE
Sampling rate : 48.0 KHz
Bit depth : 16 bits
Stream size : 62.7 MiB (6%)
Audio #2
ID : 129 (0x81)
Format : AC-3
Format/Info : Audio Coding 3
Mode extension : CM (complete main)
Duration : 19mn 33s
Bit rate mode : Constant
Bit rate : 384 Kbps
Channel(s) : 6 channels
Channel positions : Front: L C R, Side: L R, LFE
Sampling rate : 48.0 KHz
Bit depth : 16 bits
Stream size : 53.7 MiB (5%)
Audio #3
ID : 130 (0x82)
Format : AC-3
Format/Info : Audio Coding 3
Mode extension : CM (complete main)
Duration : 19mn 33s
Bit rate mode : Constant
Bit rate : 384 Kbps
Channel(s) : 6 channels
Channel positions : Front: L C R, Side: L R, LFE
Sampling rate : 48.0 KHz
Bit depth : 16 bits
Stream size : 53.7 MiB (5%)
Audio #4
ID : 131 (0x83)
Format : AC-3
Format/Info : Audio Coding 3
Mode extension : CM (complete main)
Duration : 19mn 33s
Bit rate mode : Constant
Bit rate : 384 Kbps
Channel(s) : 6 channels
Channel positions : Front: L C R, Side: L R, LFE
Sampling rate : 48.0 KHz
Bit depth : 16 bits
Stream size : 53.7 MiB (5%)
Text #1
ID : 32 (0x20)
Format : RLE
Format/Info : Run-length encoding
Text #2
ID : 33 (0x21)
Format : RLE
Format/Info : Run-length encoding
Text #3
ID : 34 (0x22)
Format : RLE
Format/Info : Run-length encoding
Text #4
ID : 35 (0x23)
Format : RLE
Format/Info : Run-length encoding
Text #5
ID : 36 (0x24)
Format : RLE
Format/Info : Run-length encoding
Text #6
ID : 37 (0x25)
Format : RLE
Format/Info : Run-length encoding
Text #7
ID : 38 (0x26)
Format : RLE
Format/Info : Run-length encoding
Text #8
ID : 39 (0x27)
Format : RLE
Format/Info : Run-length encoding
Text #9
ID : 40 (0x28)
Format : RLE
Format/Info : Run-length encoding
Text #10
ID : 41 (0x29)
Format : RLE
Format/Info : Run-length encoding
Text #11
ID : 42 (0x2A)
Format : RLE
Format/Info : Run-length encoding
Menu
- - -

_________________
Показать сообщения:    

Текущее время: Сегодня 10:40

Часовой пояс: GMT



Вы не можете начинать темы
Вы не можете отвечать на сообщения
Вы не можете редактировать свои сообщения
Вы не можете удалять свои сообщения
Вы не можете голосовать в опросах
Вы не можете прикреплять файлы к сообщениям
Вы не можете скачивать файлы