Важное объявление!
У Нас Все раздачи мультитрекерные, при нуле пиров в релизах, можете смело вставать на закачку!
 
Автор Сообщение

HUNTER

Стаж:
4 года 10 месяцев
Сообщений:
65557

Репутация: 101

[+] [-]
Вне форума [Профиль] [ЛС]

-Росомаха: Бессмертный / The Wolverine-Год выпуска: 2013
Страна: США, 20th Century Fox Film Corporation, Big Screen Productions, Donners' Company, Dune Entertainment
Жанр: Фантастика, фэнтези, боевик, приключения
Продолжительность: 02:18:14
Перевод: Дублированный (Лицензия)
Субтитры: Русские, английские, украинские-В ролях: Хью Джекман, Фамке Янссен, Брайан Ти, Уилл Юн Ли, Светлана Ходченкова, Хироюки Санада, Тао Окамото, Рила Фукусима, Джеймс Фрайзер, Харукико Яманоути
Режиссёр: Джеймс Мэнголд-Описание: Новая глава приключений Росомахи развернётся в Японии, где Логану предстоит выяснить, что острее — когти Росомахи или меч Серебряного Самурая.-Качество: BDRip 720p
Формат: MKV
Видео кодек: AVC
Аудио кодек: DTS, AC3
Видео: MPEG-4 AVC, 5248 Кбит/с, 1280x532, 23.976 fps
Аудио 1: Русский - DTS, 6 ch, 768 Кбит/с, 48 KHz
Аудио 2: Русский - AC3, 6 ch, 448 Кбит/с, 48 KHz
Аудио 3: Английский - DTS, 6 ch, 1510 Кбит/с, 48 KHz-

MI

Формат : Matroska
Версия формата : Version 2
Размер файла : 7,69 Гбайт
Продолжительность : 2 ч. 18 м.
Общий поток : 7963 Кбит/сек
Дата кодирования : UTC 2013-11-19 21:03:42
Программа кодирования : mkvmerge v6.3.0 ('You can't stop me!') built on Jun 28 2013 20:09:41
Библиотека кодирования : libebml v1.3.0 + libmatroska v1.4.0
Видео
Идентификатор : 1
Формат : AVC
Формат/Информация : Advanced Video Codec
Профиль формата : [url=mailto:High@L4.1]High@L4.1[/url]
Параметр CABAC формата : Да
Параметр ReFrames формата : 10 кадров
Идентификатор кодека : V_MPEG4/ISO/AVC
Продолжительность : 2 ч. 18 м.
Битрейт : 5248 Кбит/сек
Ширина : 1280 пикселей
Высота : 532 пикселя
Соотношение сторон : 2,40:1
Режим частоты кадров : Постоянный
Частота кадров : 23,976 кадра/сек
Цветовое пространство : YUV
Субдискретизация насыщенности : 4:2:0
Битовая глубина : 8 бит
Тип развёртки : Прогрессивная
Бит/(Пиксели*Кадры) : 0.321
Размер потока : 4,90 Гбайт (64%)
Заголовок : The.Wolverine.Unleashed.Extended.Edition.2013
Библиотека кодирования : x264 core 138 r2356 a1d3d17
Настройки программы : cabac=1 / ref=10 / deblock=1:-3:-3 / analyse=0x3:0x113 / me=umh / subme=10 / psy=1 / psy_rd=1.00:0.05 / mixed_ref=1 / me_range=32 / chroma_me=1 / trellis=2 / 8x8dct=1 / cqm=0 / deadzone=21,11 / fast_pskip=0 / chroma_qp_offset=-2 / threads=18 / lookahead_threads=1 / sliced_threads=0 / nr=0 / decimate=1 / interlaced=0 / bluray_compat=0 / constrained_intra=0 / bframes=5 / b_pyramid=2 / b_adapt=2 / b_bias=0 / direct=3 / weightb=1 / open_gop=0 / weightp=2 / keyint=250 / keyint_min=23 / scenecut=40 / intra_refresh=0 / rc=2pass / mbtree=0 / bitrate=5248 / ratetol=1.0 / qcomp=0.70 / qpmin=0 / qpmax=69 / qpstep=4 / cplxblur=20.0 / qblur=0.5 / ip_ratio=1.40 / pb_ratio=1.30 / aq=2:1.00
Язык : English
Default : Да
Forced : Нет
Аудио #1
Идентификатор : 2
Формат : DTS
Формат/Информация : Digital Theater Systems
Режим : 16
Параметр Endianness формата : Big
Идентификатор кодека : A_DTS
Продолжительность : 2 ч. 18 м.
Вид битрейта : Постоянный
Битрейт : 768 Кбит/сек
Каналы : 6 каналов
Расположение каналов : Front: L C R, Side: L R, LFE
Частота : 48,0 КГц
Битовая глубина : 24 бит
Метод сжатия : С потерями
Размер потока : 759 Мбайт (10%)
Язык : Russian
Default : Да
Forced : Нет
Аудио #2
Идентификатор : 3
Формат : AC-3
Формат/Информация : Audio Coding 3
Расширение режима : CM (complete main)
Параметр Endianness формата : Big
Идентификатор кодека : A_AC3
Продолжительность : 2 ч. 18 м.
Вид битрейта : Постоянный
Битрейт : 448 Кбит/сек
Каналы : 6 каналов
Расположение каналов : Front: L C R, Side: L R, LFE
Частота : 48,0 КГц
Битовая глубина : 16 бит
Метод сжатия : С потерями
Размер потока : 443 Мбайт (6%)
Язык : Russian
Default : Нет
Forced : Нет
Аудио #3
Идентификатор : 4
Формат : DTS
Формат/Информация : Digital Theater Systems
Профиль формата : ES
Режим : 16
Параметр Endianness формата : Big
Идентификатор кодека : A_DTS
Продолжительность : 2 ч. 18 м.
Вид битрейта : Постоянный
Битрейт : 1509 Кбит/сек
Каналы : 6 каналов
Расположение каналов : Front: L C R, Side: L R, LFE
Частота : 48,0 КГц
Битовая глубина : 24 бит
Метод сжатия : С потерями
Размер потока : 1,46 Гбайт (19%)
Заголовок : DTS-CORE 1536K ENG
Язык : English
Default : Нет
Forced : Нет
Текст #1
Идентификатор : 5
Формат : UTF-8
Идентификатор кодека : S_TEXT/UTF8
Идентификатор кодека/Информация : UTF-8 Plain Text
Язык : Russian
Default : Нет
Forced : Нет
Текст #2
Идентификатор : 6
Формат : UTF-8
Идентификатор кодека : S_TEXT/UTF8
Идентификатор кодека/Информация : UTF-8 Plain Text
Язык : Russian
Default : Нет
Forced : Нет
Текст #3
Идентификатор : 7
Формат : UTF-8
Идентификатор кодека : S_TEXT/UTF8
Идентификатор кодека/Информация : UTF-8 Plain Text
Язык : Ukrainian
Default : Нет
Forced : Нет
Текст #4
Идентификатор : 8
Формат : UTF-8
Идентификатор кодека : S_TEXT/UTF8
Идентификатор кодека/Информация : UTF-8 Plain Text
Заголовок : English
Язык : English
Default : Нет
Forced : Нет
Текст #5
Идентификатор : 9
Формат : UTF-8
Идентификатор кодека : S_TEXT/UTF8
Идентификатор кодека/Информация : UTF-8 Plain Text
Заголовок : English
Язык : English
Default : Нет
Forced : Нет
Меню
00:00:00.000 : en:00:00:00.000
00:05:03.720 : en:00:05:03.720
00:07:39.793 : en:00:07:39.793
00:08:40.562 : en:00:08:40.562
00:10:24.374 : en:00:10:24.374
00:13:55.668 : en:00:13:55.668
00:16:48.174 : en:00:16:48.174
00:20:32.648 : en:00:20:32.648
00:23:36.498 : en:00:23:36.498
00:29:13.585 : en:00:29:13.585
00:33:42.771 : en:00:33:42.771
00:35:14.779 : en:00:35:14.779
00:38:36.522 : en:00:38:36.522
00:43:04.957 : en:00:43:04.957
00:47:55.080 : en:00:47:55.080
00:49:31.844 : en:00:49:31.844
00:52:23.098 : en:00:52:23.098
00:59:32.318 : en:00:59:32.318
01:01:31.354 : en:01:01:31.354
01:07:00.516 : en:01:07:00.516
01:13:10.261 : en:01:13:10.261
01:18:52.227 : en:01:18:52.227
01:23:40.473 : en:01:23:40.473
01:26:47.160 : en:01:26:47.160
01:29:50.927 : en:01:29:50.927
01:35:19.380 : en:01:35:19.380
01:38:28.194 : en:01:38:28.194
01:41:43.639 : en:01:41:43.639
01:48:33.006 : en:01:48:33.006
01:52:05.969 : en:01:52:05.969
01:54:56.264 : en:01:54:56.264
01:58:03.493 : en:01:58:03.493
02:03:01.999 : en:02:03:01.999
02:04:57.406 : en:02:04:57.406
02:07:46.700 : en:02:07:46.700
02:09:17.374 : en:02:09:17.374

Рейтинг

Рейтинг:

Скриншоты


_________________
Показать сообщения:    

Текущее время: Сегодня 17:36

Часовой пояс: GMT



Вы не можете начинать темы
Вы не можете отвечать на сообщения
Вы не можете редактировать свои сообщения
Вы не можете удалять свои сообщения
Вы не можете голосовать в опросах
Вы не можете прикреплять файлы к сообщениям
Вы не можете скачивать файлы