Важное объявление!
У Нас Все раздачи мультитрекерные, при нуле пиров в релизах, можете смело вставать на закачку!
 
Автор Сообщение

HUNTER

Стаж:
4 года 7 месяцев
Сообщений:
61582

Репутация: 101

[+] [-]
Вне форума [Профиль] [ЛС]

Росомаха: Бессмертный
The Wolverine
-«When he's most vulnerable, he's most dangerous»-Страна: США
Год выпуска: 2013
Жанр: фантастика, фэнтези, боевик, приключения
Продолжительность: 02:06:01--Перевод: Профессиональный (дублированный)
Cубтитры: Русские форсированные, Русские, Украинские, Английские
Оригинальная аудиодорожка: Английская--Режиссер:
Джеймс Мэнголд / James Mangold
В ролях:
Хью Джекман (Logan), Тао Окамото (Mariko), Рила Фукусима (Yukio), Светлана Ходченкова (Viper), Уилл Юн Ли (Harada), Харукико Яманоути (Yashida), Хироюки Санада (Shingen), Брайан Ти (Noburo), Кен Ямамура (Young Yashida), Фамке Янссен (Jean Grey)--Описание:Новая глава приключений Росомахи развернётся в Японии, где Логану предстоит выяснить, что острее — когти Росомахи или меч Серебряного Самурая.-- --Доп. информация: Исходиник Blu-Ray. Спасибо AlexD555 за инструкцию! Так же спасибо товарищам samsonq и ZVNV.--Меню: английское, анимированное, озвученое
Сэмпл: http://multi-up.com/945361-Тип релиза: DVD5
Контейнер: DVD-Video
Видео: NTSC 16:9 (720x480) VBR, Auto Letterboxed
Аудио 1: Russian (Dolby AC3, 5.1 ch, 448 кб/с) - дубляж
Аудио 2: English (Dolby AC3, 5.1 ch, 448 кб/с) - оригиналРелиз от:

MediaInfo

General
Complete name : D:\Фильмы\Rossomaha.bessmertnyi.2013.DVD5\VIDEO_TS\VTS_01_1.VOB
Format : MPEG-PS
File size : 1 024 MiB
Duration : 31mn 41s
Overall bit rate : 4 518 Kbps
Video
ID : 224 (0xE0)
Format : MPEG Video
Format version : Version 2
Format profile : Main@Main
Format settings, BVOP : Yes
Format settings, Matrix : Custom
Duration : 31mn 41s
Bit rate mode : Variable
Bit rate : 3 532 Kbps
Width : 720 pixels
Height : 480 pixels
Display aspect ratio : 2.35:1
Frame rate : 23.976 fps
Standard : NTSC
Color space : YUV
Chroma subsampling : 4:2:0
Bit depth : 8 bits
Scan type : Progressive
Scan order : 2:3 Pulldown
Compression mode : Lossy
Bits/(Pixel*Frame) : 0.426
Stream size : 801 MiB (78%)
Audio #1
ID : 189 (0xBD)-128 (0x80)
Format : AC-3
Format/Info : Audio Coding 3
Mode extension : CM (complete main)
Muxing mode : DVD-Video
Duration : 31mn 41s
Bit rate mode : Constant
Bit rate : 448 Kbps
Channel(s) : 6 channels
Channel positions : Front: L C R, Side: L R, LFE
Sampling rate : 48.0 KHz
Bit depth : 16 bits
Compression mode : Lossy
Stream size : 102 MiB (10%)
Audio #2
ID : 189 (0xBD)-129 (0x81)
Format : AC-3
Format/Info : Audio Coding 3
Mode extension : CM (complete main)
Muxing mode : DVD-Video
Duration : 31mn 41s
Bit rate mode : Constant
Bit rate : 448 Kbps
Channel(s) : 6 channels
Channel positions : Front: L C R, Side: L R, LFE
Sampling rate : 48.0 KHz
Bit depth : 16 bits
Compression mode : Lossy
Stream size : 102 MiB (10%)
Text
ID : 189 (0xBD)-35 (0x23)
Format : RLE
Format/Info : Run-length encoding
Muxing mode : DVD-Video
Menu

DVDInfo

Title: Rossomaha.bessmertnyi.2013.DVD5
Size: 4.37 Gb ( 4 579 106,00 KBytes ) - DVD-5
Enabled regions: 1, 2, 3, 4, 5, 6, 7, 8
VTS_01 :
Play Length: 02:06:01
Video: NTSC 16:9 (720x480) VBR, Auto Letterboxed
Audio:
Russian, AC3, 3/2 (L,C,R,SL,SR)+LFE ch, 448 kbps, Delay 0 mSec
English, AC3, 3/2 (L,C,R,SL,SR)+LFE ch, 448 kbps, Delay 0 mSec
Subtitles:
Russian
Russian
Ukrainian
English

Программы, используемые при создании релиза

Видео
ProCoder 3 - конвертация видео
AviSynth - обработка видео
DGDecodeNV - индексирование
Програмы для разборки ремукса/DVD
tsMuxeR - разборка ремукса
Работа со звуком
TranzcodeGUI - извлечение WAV
Sonic Foundry Soft Encode - конвертация из формата WAV в AC3
Работа с меню и реавторинг
DVD-lab PRO 2 - реавторинг диска
Adobe Photoshop - редактирование меню

-
-

Скриншоты меню

Скриншоты


_________________
Показать сообщения:    

Текущее время: Сегодня 22:09

Часовой пояс: GMT



Вы не можете начинать темы
Вы не можете отвечать на сообщения
Вы не можете редактировать свои сообщения
Вы не можете удалять свои сообщения
Вы не можете голосовать в опросах
Вы не можете прикреплять файлы к сообщениям
Вы не можете скачивать файлы
Наши партнеры: интернет магазин Ивановского трикотажа textilla.ru