Ивановский Торрент трекер
Яндекс.Погода
 

[Цитировать]
HUNTER

Ронин / Ronin
Страна: Великобритания, США
Жанр: Боевик, Криминал, Триллер, Приключения
Год выпуска: 1998
Продолжительность: 02:01:33
Перевод 1: Профессиональный (дублированный) Нева-1
Перевод 2: Профессиональный (Многоголосый закадровый) R5
Перевод 3: Профессиональный (многоголосый закадровый) Варус видео
Перевод 4: Профессиональный (многоголосый закадровый) Лазер видео
Перевод 5: Профессиональный (многоголосый закадровый) С.Р.И.
Перевод 6: Профессиональный (многоголосый закадровый) Домашнее видео
Перевод 7: Профессиональный (многоголосый закадровый) Первый Канал
Перевод 8: Профессиональный (многоголосый закадровый) НТВ
Перевод 9: Профессиональный (двухголосый, закадровый) Союз Видео
Перевод 10: Одноголосый закадровый Д. Есарев
Перевод 11: Авторский (одноголосый закадровый) Ю. Живов
Перевод 12: Авторский (одноголосый закадровый) А. Гаврилов
Перевод 13: Авторский (одноголосый закадровый) А. Кашкин
Перевод 14: Одноголосый закадровый Н. Антонов
Cубтитры: Русские, Английские
Оригинальная аудиодорожка: Английский
Режиссер: Джон Франкенхаймер / John Frankenheimer
В ролях: Роберт Де Ниро, Жан Рено, Наташа МакЭлхоун, Стеллан Скарсгард, Шон Бин, Скипп Саддат, Микаэль Лонсдаль, Ян Триска, Джонатан Прайс, Рон Перкинс
Описание: Хотя холодная война давно закончена, тайные наемники, чьи навыки в слежке, шпионаже и силовых схватках буквально легендарны, остаются востребованными при новом мировом порядке и всегда находят высокооплачиваемую работу. Некий таинственный клиент собирает в Париже команду таких «платных оперативников», известных как «Ронины», для похищения сверхсекретного портфеля.
Вскоре выясняется, что это, на первый взгляд простое, задание почти невыполнимо: та же цена обещана за тот же портфель еще нескольким нелегальным группам.
Чтобы справиться с работой, бывший агент ЦРУ по кличке «Сэм» и его наспех сколоченный отряд должны делать то, чего им не приходилось делать никогда раньше: довериться друг другу...-Рейтинг
-Рип от VietHD!
Сэмпл
Тип релиза: BDRip 720p (исх. Ronin 1998 1080p Blu-ray MPEG-2 DTS-HD MA 5.1)
Контейнер: MKV
Видео: 1280x544 (2,35:1), 23.976 fps, x264, ~6499 kbps
Аудио 1: Russian: 48 KHz, AC3, 2 (L,R) ch (mono), 192 kbps | Дубляж, Нева-1
Аудио 2: Russian: 48 KHz, DTS, 3/2 (L,C,R,l,r) + LFE ch, ~755 kbps | Многоголосый закадровый, R5
Аудио 3: Russian: 48 kHz, DTS, 3/2 (L,C,R,l,r) + LFE ch, ~755 kbps | Многоголосый закадровый, Варус видео
Аудио 4: Russian: 48 khz, DTS, 3/2 (L,C,R,l,r) + LFE ch, ~755 kbps | Многоголосый закадровый, Лазер видео
Аудио 5: Russian: 48 kHz, DTS, 3/2 (L,C,R,l,r) + LFE ch, ~755 kbps | Многоголосый закадровый, С.Р.И.
Аудио 6: Russian: 48 kHz, DTS, 3/2 (L,C,R,l,r) + LFE ch, ~755 kbps | Многоголосый закадровый, Домашнее видео
Аудио 7: Russian: 48 kHz, AC3, 2/0 (L,R) ch, ~192 kbps | Многоголосый закадровый, Первый Канал
Аудио 8: Russian: 48 kHz, AC3, 2/0 (L,R) ch, ~192 kbps | Многоголосый закадровый, НТВ
Аудио 9: Russian: 48 kHz, AC3, 2/0 (L,R) ch, ~224 kbps | Двухголосый закадровый, Союз Видео
Аудио 10: Russian: 48 kHz, DTS, 3/2 (L,C,R,l,r) + LFE ch, ~1509 kbps | Одноголосый закадровый, Д. Есарев
Аудио 11: Russian: 48 kHz, DTS, 3/2 (L,C,R,l,r) + LFE ch, ~1509 kbps | Одноголосый закадровый, Ю. Живов
Аудио 12: Russian: 48 kHz, AC3, 3/2 (L,C,R,l,r) + LFE ch, ~384 kbps | Одноголосый закадровый, А. Гаврилов
Аудио 13: Russian: 48 kHz, AC3, 2/0 (L,R) ch, ~192 kbps | Одноголосый закадровый, А. Кашкин
Аудио 14: Russian: 48 kHz, AC3, 2/0 (L,R) ch, ~192 kbps | Одноголосый закадровый, Н. Антонов
Аудио 15: English: 48 kHz/24-bit, DTS, ~1509.00 kbps
Субтитры: Russian, English (Forced, Full)
Формат субтитров: softsub (SRT)

Дополнительно

За дороги спасибо:
№1 Sergunka172, за работу со звуком ale_x2008
№2 Genry13. Синхронизация igrok2012
№3, №4 bondbond62
№7 Fikaloid, №9 team_6strun, №13 RockNIK, №14 team_6strun. Синхронизация JUSTKANT
№5, №6, №8, №11, №12 Skazhutin
№10 mv73. Работа со звуком DREADG

MediaInfo

Общее
Unique ID : 184720112143433861538863140778592613268 (0x8AF7CCAE0C459665BD1A9C117C72B394)
Complete name : N:\video_rutracker\Ronin.1998.720p.BDRip.14xRus.Eng.Sub.mkv
Format : Matroska
Format version : Version 2
File size : 14,0 Гбайт
Duration : 2 ч. 1 м.
Overall bit rate : 16,5 Мбит/сек
Encoded date : UTC 2015-12-22 19:22:01
Writing application : mkvmerge v8.3.0 ('Over the Horizon') 64bit
Writing library : libebml v1.3.1 + libmatroska v1.4.2
Attachements : cover.jpg
Видео
ID : 1
Format : AVC
Format/Info : Advanced Video Codec
Format profile : High@L4.1
Format settings, CABAC : Да
Format settings, ReFrames : 12 кадров
Codec ID : V_MPEG4/ISO/AVC
Duration : 2 ч. 1 м.
Bit rate : 6322 Кбит/сек
Width : 1280 пикселей
Height : 544 пикселя
Display aspect ratio : 2,35:1
Frame rate mode : Постоянный
Frame rate : 23,976 (24000/1001) кадра/сек
Color space : YUV
Chroma subsampling : 4:2:0
Bit depth : 8 бит
Scan type : Прогрессивная
Bits/(Pixel*Frame) : 0.379
Stream size : 5,37 Гбайт (38%)
Title : Ronin.1998 Encode by VietHD
Writing library : x264 core 133 r2334 a3ac64b
Encoding settings : cabac=1 / ref=12 / deblock=1:-3:-3 / analyse=0x3:0x133 / me=umh / subme=10 / psy=1 / psy_rd=1.05:0.00 / mixed_ref=1 / me_range=24 / chroma_me=1 / trellis=2 / 8x8dct=1 / cqm=0 / deadzone=21,11 / fast_pskip=0 / chroma_qp_offset=-2 / threads=6 / lookahead_threads=1 / sliced_threads=0 / nr=0 / decimate=0 / interlaced=0 / bluray_compat=0 / constrained_intra=0 / bframes=12 / b_pyramid=2 / b_adapt=2 / b_bias=0 / direct=3 / weightb=1 / open_gop=0 / weightp=2 / keyint=250 / keyint_min=23 / scenecut=40 / intra_refresh=0 / rc=crf / mbtree=0 / crf=17.5 / qcomp=0.70 / qpmin=0 / qpmax=69 / qpstep=4 / ip_ratio=1.20 / pb_ratio=1.20 / aq=2:0.70
Language : English
Default : Да
Forced : Нет
Аудио #1
ID : 2
Format : AC-3
Format/Info : Audio Coding 3
Mode extension : CM (complete main)
Format settings, Endianness : Big
Codec ID : A_AC3
Duration : 2 ч. 1 м.
Bit rate mode : Постоянный
Bit rate : 192 Кбит/сек
Channel(s) : 2 канала
Channel positions : Front: L R
Sampling rate : 48,0 КГц
Frame rate : 31,250 кадров/сек (1536 spf)
Compression mode : С потерями
Stream size : 167 Мбайт (1%)
Title : Дубляж, «Невафильм»
Language : Russian
Default : Да
Forced : Нет
Аудио #2
ID : 3
Format : DTS
Format/Info : Digital Theater Systems
Mode : 16
Format settings, Endianness : Big
Codec ID : A_DTS
Duration : 2 ч. 1 м.
Bit rate mode : Постоянный
Bit rate : 755 Кбит/сек
Channel(s) : 6 каналов
Channel positions : Front: L C R, Side: L R, LFE
Sampling rate : 48,0 КГц
Frame rate : 93,750 кадра/сек (512 spf)
Bit depth : 16 бит
Compression mode : С потерями
Stream size : 656 Мбайт (5%)
Title : Многоголосый закадровый, R5
Language : Russian
Default : Нет
Forced : Нет
Аудио #3
ID : 4
Format : DTS
Format/Info : Digital Theater Systems
Mode : 16
Format settings, Endianness : Big
Codec ID : A_DTS
Duration : 2 ч. 1 м.
Bit rate mode : Постоянный
Bit rate : 755 Кбит/сек
Channel(s) : 6 каналов
Channel positions : Front: L C R, Side: L R, LFE
Sampling rate : 48,0 КГц
Frame rate : 93,750 кадра/сек (512 spf)
Bit depth : 24 бит
Compression mode : С потерями
Stream size : 656 Мбайт (5%)
Title : Многоголосый закадровый, «Варус видео»
Language : Russian
Default : Нет
Forced : Нет
Аудио #4
ID : 5
Format : DTS
Format/Info : Digital Theater Systems
Mode : 16
Format settings, Endianness : Big
Codec ID : A_DTS
Duration : 2 ч. 1 м.
Bit rate mode : Постоянный
Bit rate : 755 Кбит/сек
Channel(s) : 6 каналов
Channel positions : Front: L C R, Side: L R, LFE
Sampling rate : 48,0 КГц
Frame rate : 93,750 кадра/сек (512 spf)
Bit depth : 24 бит
Compression mode : С потерями
Stream size : 656 Мбайт (5%)
Title : Многоголосый закадровый, «Лазер видео»
Language : Russian
Default : Нет
Forced : Нет
Аудио #5
ID : 6
Format : DTS
Format/Info : Digital Theater Systems
Mode : 16
Format settings, Endianness : Big
Codec ID : A_DTS
Duration : 2 ч. 1 м.
Bit rate mode : Постоянный
Bit rate : 755 Кбит/сек
Channel(s) : 6 каналов
Channel positions : Front: L C R, Side: L R, LFE
Sampling rate : 48,0 КГц
Frame rate : 93,750 кадра/сек (512 spf)
Bit depth : 24 бит
Compression mode : С потерями
Stream size : 656 Мбайт (5%)
Title : Многоголосый закадровый, «С.Р.И.»
Language : Russian
Default : Нет
Forced : Нет
Аудио #6
ID : 7
Format : DTS
Format/Info : Digital Theater Systems
Mode : 16
Format settings, Endianness : Big
Codec ID : A_DTS
Duration : 2 ч. 1 м.
Bit rate mode : Постоянный
Bit rate : 755 Кбит/сек
Channel(s) : 6 каналов
Channel positions : Front: L C R, Side: L R, LFE
Sampling rate : 48,0 КГц
Frame rate : 93,750 кадра/сек (512 spf)
Bit depth : 24 бит
Compression mode : С потерями
Stream size : 656 Мбайт (5%)
Title : Многоголосый закадровый, «Домашнее видео»
Language : Russian
Default : Нет
Forced : Нет
Аудио #7
ID : 8
Format : AC-3
Format/Info : Audio Coding 3
Mode extension : CM (complete main)
Format settings, Endianness : Big
Codec ID : A_AC3
Duration : 2 ч. 1 м.
Bit rate mode : Постоянный
Bit rate : 192 Кбит/сек
Channel(s) : 2 канала
Channel positions : Front: L R
Sampling rate : 48,0 КГц
Frame rate : 31,250 кадров/сек (1536 spf)
Compression mode : С потерями
Stream size : 167 Мбайт (1%)
Title : Многоголосый закадровый, «Первый Канал»
Language : Russian
Default : Нет
Forced : Нет
Аудио #8
ID : 9
Format : AC-3
Format/Info : Audio Coding 3
Mode extension : CM (complete main)
Format settings, Endianness : Big
Codec ID : A_AC3
Duration : 2 ч. 1 м.
Bit rate mode : Постоянный
Bit rate : 192 Кбит/сек
Channel(s) : 2 канала
Channel positions : Front: L R
Sampling rate : 48,0 КГц
Frame rate : 31,250 кадров/сек (1536 spf)
Compression mode : С потерями
Stream size : 167 Мбайт (1%)
Title : Многоголосый закадровый, «НТВ»
Language : Russian
Default : Нет
Forced : Нет
Аудио #9
ID : 10
Format : AC-3
Format/Info : Audio Coding 3
Mode extension : CM (complete main)
Format settings, Endianness : Big
Codec ID : A_AC3
Duration : 2 ч. 1 м.
Bit rate mode : Постоянный
Bit rate : 224 Кбит/сек
Channel(s) : 2 канала
Channel positions : Front: L R
Sampling rate : 48,0 КГц
Frame rate : 31,250 кадров/сек (1536 spf)
Compression mode : С потерями
Stream size : 195 Мбайт (1%)
Title : Двухголосый закадровый, «Союз Видео»
Language : Russian
Default : Нет
Forced : Нет
Аудио #10
ID : 11
Format : DTS
Format/Info : Digital Theater Systems
Mode : 16
Format settings, Endianness : Big
Codec ID : A_DTS
Duration : 2 ч. 1 м.
Bit rate mode : Постоянный
Bit rate : 1509 Кбит/сек
Channel(s) : 6 каналов
Channel positions : Front: L C R, Side: L R, LFE
Sampling rate : 48,0 КГц
Frame rate : 93,750 кадра/сек (512 spf)
Bit depth : 24 бит
Compression mode : С потерями
Stream size : 1,28 Гбайт (9%)
Title : Одноголосый закадровый, Есарев
Language : Russian
Default : Нет
Forced : Нет
Аудио #11
ID : 12
Format : DTS
Format/Info : Digital Theater Systems
Mode : 16
Format settings, Endianness : Big
Codec ID : A_DTS
Duration : 2 ч. 1 м.
Bit rate mode : Постоянный
Bit rate : 1509 Кбит/сек
Channel(s) : 6 каналов
Channel positions : Front: L C R, Side: L R, LFE
Sampling rate : 48,0 КГц
Frame rate : 93,750 кадра/сек (512 spf)
Bit depth : 24 бит
Compression mode : С потерями
Stream size : 1,28 Гбайт (9%)
Title : Одноголосый закадровый, Живов
Language : Russian
Default : Нет
Forced : Нет
Аудио #12
ID : 13
Format : AC-3
Format/Info : Audio Coding 3
Mode extension : CM (complete main)
Format settings, Endianness : Big
Codec ID : A_AC3
Duration : 2 ч. 1 м.
Bit rate mode : Постоянный
Bit rate : 384 Кбит/сек
Channel(s) : 6 каналов
Channel positions : Front: L C R, Side: L R, LFE
Sampling rate : 48,0 КГц
Frame rate : 31,250 кадров/сек (1536 spf)
Compression mode : С потерями
Stream size : 334 Мбайт (2%)
Title : Одноголосый закадровый, Гаврилов
Language : Russian
Default : Нет
Forced : Нет
Аудио #13
ID : 14
Format : AC-3
Format/Info : Audio Coding 3
Mode extension : CM (complete main)
Format settings, Endianness : Big
Codec ID : A_AC3
Duration : 2 ч. 1 м.
Bit rate mode : Постоянный
Bit rate : 192 Кбит/сек
Channel(s) : 2 канала
Channel positions : Front: L R
Sampling rate : 48,0 КГц
Frame rate : 31,250 кадров/сек (1536 spf)
Compression mode : С потерями
Stream size : 167 Мбайт (1%)
Title : Одноголосый закадровый, Кашкин
Language : Russian
Default : Нет
Forced : Нет
Аудио #14
ID : 15
Format : AC-3
Format/Info : Audio Coding 3
Mode extension : CM (complete main)
Format settings, Endianness : Big
Codec ID : A_AC3
Duration : 2 ч. 1 м.
Bit rate mode : Постоянный
Bit rate : 192 Кбит/сек
Channel(s) : 2 канала
Channel positions : Front: L R
Sampling rate : 48,0 КГц
Frame rate : 31,250 кадров/сек (1536 spf)
Compression mode : С потерями
Stream size : 167 Мбайт (1%)
Title : Одноголосый закадровый, Антонов
Language : Russian
Default : Нет
Forced : Нет
Аудио #15
ID : 16
Format : DTS
Format/Info : Digital Theater Systems
Mode : 16
Format settings, Endianness : Big
Codec ID : A_DTS
Duration : 2 ч. 1 м.
Bit rate mode : Постоянный
Bit rate : 1509 Кбит/сек
Channel(s) : 6 каналов
Channel positions : Front: L C R, Side: L R, LFE
Sampling rate : 48,0 КГц
Frame rate : 93,750 кадра/сек (512 spf)
Bit depth : 24 бит
Compression mode : С потерями
Stream size : 1,28 Гбайт (9%)
Title : Original
Language : English
Default : Нет
Forced : Нет
Текст #1
ID : 17
Format : UTF-8
Codec ID : S_TEXT/UTF8
Codec ID/Info : UTF-8 Plain Text
Title : Full
Language : Russian
Default : Нет
Forced : Нет
Текст #2
ID : 18
Format : UTF-8
Codec ID : S_TEXT/UTF8
Codec ID/Info : UTF-8 Plain Text
Title : Forced
Language : English
Default : Нет
Forced : Нет
Текст #3
ID : 19
Format : UTF-8
Codec ID : S_TEXT/UTF8
Codec ID/Info : UTF-8 Plain Text
Title : Full
Language : English
Default : Нет
Forced : Нет
Меню
00:00:00.000 : en:Start
00:07:01.796 : en:Team Dynamics
00:10:28.961 : en:Botched Exchange
00:15:23.339 : en:New Negotiations
00:17:22.082 : en:Photographic Study
00:18:55.050 : en:Remote Sensor Tracking
00:24:12.784 : en:In Search Of Gregor
00:26:20.662 : en:Answering To The Boss
00:27:20.138 : en:Those Who Wait...
00:31:22.171 : en:The Link To The Case
00:33:54.490 : en:Ice-Skating Gala
00:39:19.899 : en:Farewell
00:41:19.351 : en:Bull's-Eye Bombing
00:45:21.719 : en:Chasing The Target
00:49:51.238 : en:Crashing The Case
00:51:35.842 : en:Spiritual Doctor
00:54:35.563 : en:"Life Is Uncertain"
00:57:32.240 : en:Gregor's Icy Ring
00:58:53.238 : en:"I Need Your Help!"
01:01:21.344 : en:The Arena Massacre
01:09:04.598 : en:Directing Surgery
01:14:48.275 : en:Seamus' Hostility
01:20:06.051 : en:Masterless Samurai
01:24:01.494 : en:Fragile Hesitation
01:27:05.345 : en:Chases To Die For
01:35:04.323 : en:A Questionable Case
01:39:31.924 : en:Scary Ice Skating
01:45:25.110 : en:Gregor's Gunned Down
01:49:22.264 : en:A Frenzy Of Fleeing
01:51:49.411 : en:Showdown With Seamus
01:53:46.402 : en:"Peaceful" Closure
01:56:02.580 : en:Credits

Скриншоты сравнения

HiDt | VietHD-




-
23.12.15 00:10 (мск). Торрент обновлен.
Причина: добавлена дорога MVO R5, дороги "Варус видео" и "Лазер видео" заменены на более качественные.
Показать сообщения:    

Текущее время: 25-Сен 19:46

Часовой пояс: UTC - 1


Вы не можете начинать темы
Вы не можете отвечать на сообщения
Вы не можете редактировать свои сообщения
Вы не можете удалять свои сообщения
Вы не можете голосовать в опросах
Вы не можете прикреплять файлы к сообщениям
Вы не можете скачивать файлы

!ВНИМАНИЕ!
Сайт не предоставляет электронные версии произведений, а занимается лишь коллекционированием и каталогизацией ссылок, присылаемых и публикуемых на форуме нашими читателями. Если вы являетесь правообладателем какого-либо представленного материала и не желаете, чтобы ссылка на него находилась в нашем каталоге, свяжитесь с нами, и мы незамедлительно удалим ее. Файлы для обмена на трекере предоставлены пользователями сайта, и администрация не несет ответственности за их содержание. Просьба не заливать файлы, защищенные авторскими правами, а также файлы нелегального содержания!