Ивановский Торрент трекер
Яндекс.Погода
 

[Цитировать]
HUNTER

Ронал варвар / Ronal Barbaren
Страна: Дания
Жанр: Фентези, комедия, 16+
Продолжительность: 01:29:18
Год выпуска: 2011
Перевод: Профессиональный (дублированный)
Русские субтитры: нет
Режиссёр: Kresten Vestbjerg Andersen, Philip Einstein Lipski, T. Christoffersen
Роли озвучивали: Николай Быстров — Ронал, Александр Пушной — Альберт, Мария Кожевникова — Зандра, Денис Ясик — Элрик, Никита Джигурда — Волказар, Анатолий Хропов — Гюндар, Илья Барабанов — Горак, Владимир Скворцов — Оракул, Сергей Мезенцев — Палач, Сергей Шнуров — Гу’ра Зул, Эвелина Блёданс — Королева Амазонок
Описание: Мультфильм пародирует традиционные фентезийные сюжеты, и в первую очередь — сагу о Конане-Варваре. В данном случае, главный герой представлен прямой противоположностью Конана. Он выглядит как немощный неудачник, напрочь лишённый силы, харизмы, отваги и качеств лидера. Однако, ему удаётся найти в себе силу перебороть внутренний страх и справиться с фактически непобедимым противником.
Доп. информация: Не вздумайте смотреть мультфильм вместе с детьми. Мультфильм рассчитан на достаточно взрослую аудиторию.
Семпл: http://multi-up.com/1022019
Качество: BDRip
Формат: AVI
Видео: XVID, 720x304, 23.976 fps, 1 869 Kbps
Аудио: AC-3, 48.0 KHz, 6 channels:Front: L C R, Side: L R, LFE, 448 Kbps
Субтитры: Отсутствуют

Подробные технические данные

GeneralComplete name : Ronal.varvar.2011.RUS.BDRip.XviD.AC3.aviFormat : AVIFormat/Info : Audio Video InterleaveFile size : 1.45 GiBDuration : 1h 29mnOverall bit rate : 2 327 KbpsDirector :Writing application : VirtualDubMod 1.5.10.2 (build 2540/release)Copyright :Comment :
VideoID : 0Format : MPEG-4 VisualFormat profile : Advanced Simple@L5Format settings, BVOP : 1Format settings, QPel : NoFormat settings, GMC : No warppointsFormat settings, Matrix : CustomCodec ID : XVIDCodec ID/Hint : XviDDuration : 1h 29mnBit rate : 1 869 KbpsWidth : 720 pixelsHeight : 304 pixelsDisplay aspect ratio : 2.35:1Frame rate : 23.976 fpsColor space : YUVChroma subsampling : 4:2:0Bit depth : 8 bitsScan type : ProgressiveCompression mode : LossyBits/(Pixel*Frame) : 0.356Stream size : 1.17 GiB (80%)Writing library : XviD 72
AudioID : 1Format : AC-3Format/Info : Audio Coding 3Mode extension : CM (complete main)Format settings, Endianness : BigCodec ID : 2000Duration : 1h 29mnBit rate mode : ConstantBit rate : 448 KbpsChannel(s) : 6 channelsChannel positions : Front: L C R, Side: L R, LFESampling rate : 48.0 KHzBit depth : 16 bitsCompression mode : LossyStream size : 286 MiB (19%)Alignment : Split accross interleavesInterleave, duration : 42 ms (1.00 video frame)Interleave, preload duration : 500 ms

Скриншоты





Показать сообщения:    

Текущее время: 16-Дек 09:31

Часовой пояс: UTC ± 0


Вы не можете начинать темы
Вы не можете отвечать на сообщения
Вы не можете редактировать свои сообщения
Вы не можете удалять свои сообщения
Вы не можете голосовать в опросах
Вы не можете прикреплять файлы к сообщениям
Вы не можете скачивать файлы

!ВНИМАНИЕ!
Сайт не предоставляет электронные версии произведений, а занимается лишь коллекционированием и каталогизацией ссылок, присылаемых и публикуемых на форуме нашими читателями. Если вы являетесь правообладателем какого-либо представленного материала и не желаете, чтобы ссылка на него находилась в нашем каталоге, свяжитесь с нами, и мы незамедлительно удалим ее. Файлы для обмена на трекере предоставлены пользователями сайта, и администрация не несет ответственности за их содержание. Просьба не заливать файлы, защищенные авторскими правами, а также файлы нелегального содержания!