Ивановский Торрент трекер
Яндекс.Погода
 

[Цитировать]
HUNTER


Ронал-варвар
Ronal Barbaren 3D
-

  • Год производства: 2011

  • Страна: Дания

  • Жанр: Мультфильм, Фэнтези, Комедия, Приключения

  • Продолжительность: 01:29:16

  • Перевод: Дублированный [Лицензия]

  • Субтитры: Отсутствуют-
  • Режиссер: Крестен Вестбьерг Андерсен, Торбьорн Кристофферсен, Филип Эйнштейн Липски-
  • В ролях: Андерс Юль, Хади Ка-Куш, Лерке Винтер Андерсен, Брайан Лукке, Ларс Миккельсен, Питер Од, Ларс Бом, Свен-Оле Торсен, Оле Теструп, Пребен Кристенсен-
  • Описание:
    Ронал — самый нетипичный варвар на Земле. Его не интересуют ни битвы, ни завоевания, ни пиры. Больше всего на свете ему хочется, чтобы все просто оставили его в покое. Но судьба распоряжается иначе. Однажды злобный принц Вольказар, вождь враждебного племени, захватывает всех варваров в плен, чтобы принести их в жертву древним богам и обрести власть над миром. На свободе остается лишь Ронал. И теперь ему вместе с безалаберным бардом Алибером, мускулистой девой-воительницей Зандрой и эльфом-метросексуалом Эльриком предстоит пройти множество испытаний, чтобы освободить свой народ, обрести веру в себя и… найти любовь.-
  • Качество видео: BDRip 1080p

  • Формат видео: mkv

  • Видео кодек: MPEG-4 AVC/H.264

  • Аудио кодек: AC3

  • Видео: MPEG4 Video, (H264), 1920x1080, 23.976fps, 0.256 Bits/Pixel

  • Аудио#1: Dolby, AC3, 48000Hz, 6ch, 640 Kbps /Russian/

  • Аудио#2: Dolby, AC3, 48000Hz, 6ch, 640 Kbps /Danish/
-

Доп информация

Скриншоты

MediaInfo

Код: copyText_writeLink('this.parentNode.parentNode.nextSibling.nextSibling');
General
Unique ID : 225774633331566829388031492637125018182 (0xA9DA9CDA039CAB5BBA1BBE14C6908246)
Complete name : D:\Торенты\RONAL_BARBAREN_3D.mkv
Format : Matroska
Format version : Version 4 / Version 2
File size : 8.93 GiB
Duration : 1h 29mn
Overall bit rate : 14.3 Mbps
Movie name : RONAL_BARBAREN_3D_crop_over/under
Encoded date : UTC 2010-02-22 21:41:31
Writing application : mkvmerge v5.9.0 ('On The Loose') built on Dec 9 2012 15:37:01
Writing library : libebml v1.3.0 + libmatroska v1.4.0
Video
ID : 1
Format : AVC
Format/Info : Advanced Video Codec
Format profile : High@L4.1
Format settings, CABAC : Yes
Format settings, ReFrames : 4 frames
Format settings, GOP : M=5, N=12
Muxing mode : Header stripping
Codec ID : V_MPEG4/ISO/AVC
Duration : 1h 29mn
Bit rate : 12.7 Mbps
Width : 1 920 pixels
Height : 1 080 pixels
Display aspect ratio : 16:9
Frame rate mode : Constant
Frame rate : 23.976 fps
Color space : YUV
Chroma subsampling : 4:2:0
Bit depth : 8 bits
Scan type : Progressive
Bits/(Pixel*Frame) : 0.256
Stream size : 7.95 GiB (89%)
Title : rip by I/N
Writing library : x264 core 128 r2216M 198a7ea
Encoding settings : cabac=1 / ref=4 / deblock=1:-3:-3 / analyse=0x3:0x133 / me=umh / subme=7 / psy=1 / psy_rd=1.00:0.10 / mixed_ref=1 / me_range=32 / chroma_me=1 / trellis=2 / 8x8dct=1 / cqm=1 / deadzone=21,11 / fast_pskip=1 / chroma_qp_offset=-3 / threads=4 / lookahead_threads=1 / sliced_threads=0 / nr=0 / decimate=1 / interlaced=0 / bluray_compat=0 / constrained_intra=0 / bframes=4 / b_pyramid=2 / b_adapt=2 / b_bias=0 / direct=2 / weightb=1 / open_gop=0 / weightp=2 / keyint=12 / keyint_min=2 / scenecut=60 / intra_refresh=0 / rc_lookahead=17 / rc=crf / mbtree=1 / crf=16.0 / qcomp=0.60 / qpmin=10 / qpmax=60 / qpstep=6 / vbv_maxrate=40000 / vbv_bufsize=30000 / crf_max=30.0 / nal_hrd=none / ip_ratio=1.40 / aq=1:0.70
Default : Yes
Forced : No
Audio #1
ID : 2
Format : AC-3
Format/Info : Audio Coding 3
Mode extension : CM (complete main)
Format settings, Endianness : Big
Muxing mode : Header stripping
Codec ID : A_AC3
Duration : 1h 29mn
Bit rate mode : Constant
Bit rate : 640 Kbps
Channel(s) : 6 channels
Channel positions : Front: L C R, Side: L R, LFE
Sampling rate : 48.0 KHz
Bit depth : 16 bits
Compression mode : Lossy
Stream size : 409 MiB (4%)
Language : Russian
Default : Yes
Forced : No
Audio #2
ID : 3
Format : AC-3
Format/Info : Audio Coding 3
Mode extension : CM (complete main)
Format settings, Endianness : Big
Muxing mode : Header stripping
Codec ID : A_AC3
Duration : 1h 29mn
Bit rate mode : Constant
Bit rate : 640 Kbps
Channel(s) : 6 channels
Channel positions : Front: L C R, Side: L R, LFE
Sampling rate : 48.0 KHz
Bit depth : 16 bits
Compression mode : Lossy
Stream size : 409 MiB (4%)
Language : Danish
Default : No
Forced : No
Menu
00:00:00.000 : en:(01)00:00:00:000
00:09:15.972 : en:(02)00:09:15:972
00:15:16.790 : en:(03)00:15:16:790
00:24:42.856 : en:(04)00:24:42:856
00:31:34.309 : en:(05)00:31:34:309
00:38:47.158 : en:(06)00:38:47:158
00:47:34.351 : en:(07)00:47:34:351
00:56:31.429 : en:(08)00:56:31:429
01:02:02.427 : en:(09)01:02:02:427
01:08:37.905 : en:(10)01:08:37:905
01:16:10.899 : en:(11)01:16:10:899
01:24:47.415 : en:(12)01:24:47:415
Показать сообщения:    

Текущее время: 25-Сен 08:57

Часовой пояс: UTC - 1


Вы не можете начинать темы
Вы не можете отвечать на сообщения
Вы не можете редактировать свои сообщения
Вы не можете удалять свои сообщения
Вы не можете голосовать в опросах
Вы не можете прикреплять файлы к сообщениям
Вы не можете скачивать файлы

!ВНИМАНИЕ!
Сайт не предоставляет электронные версии произведений, а занимается лишь коллекционированием и каталогизацией ссылок, присылаемых и публикуемых на форуме нашими читателями. Если вы являетесь правообладателем какого-либо представленного материала и не желаете, чтобы ссылка на него находилась в нашем каталоге, свяжитесь с нами, и мы незамедлительно удалим ее. Файлы для обмена на трекере предоставлены пользователями сайта, и администрация не несет ответственности за их содержание. Просьба не заливать файлы, защищенные авторскими правами, а также файлы нелегального содержания!