Важное объявление!
У Нас Все раздачи мультитрекерные, при нуле пиров в релизах, можете смело вставать на закачку!
 
Автор Сообщение

HUNTER

Стаж:
4 года 10 месяцев
Сообщений:
65542

Репутация: 101

[+] [-]
Вне форума [Профиль] [ЛС]

-Ронал-варвар / Ronal barbaren-
  • Год выпуска: 2011
  • Страна: Дания
  • Жанр: Мультфильм, фэнтези, приключения
  • Продолжительность: 01:29:18
  • Перевод: Дублированный [лицензия]
  • Субтитры: Датские, норвежские-
  • В ролях: Андерс Юль, Хади Ка-Куш, Лерке Винтер Андерсен, Брайан Лукке, Ларс Миккельсен, Питер Од, Ларс Бом, Оле Теструп, Пребен Кристенсен, Оле Эрнст
  • Режиссёр: Крестен Вестбьерг Андерсен, Торбьорн Кристофферсен, Филип Эйнштейн Липски-
  • Описание:Ронал — самый нетипичный варвар на Земле. Его не интересуют ни битвы, ни завоевания, ни пиры. Больше всего на свете ему хочется, чтобы все просто оставили его в покое. Но судьба распоряжается иначе. Однажды злобный принц Вольказар, вождь враждебного племени, захватывает всех варваров в плен, чтобы принести их в жертву древним богам и обрести власть над миром. На свободе остается лишь Ронал. И теперь ему вместе с безалаберным бардом Алибером, мускулистой девой-воительницей Зандрой и эльфом-метросексуалом Эльриком предстоит пройти множество испытаний, чтобы освободить свой народ, обрести веру в себя и… найти любовь.-
  • Качество: BDRemux
  • Формат: MKV
  • Видео кодек: MPEG-4 AVC
  • Аудио кодек: AC3/DTS
  • Видео: 17.3 Мбит/с, 1920x1080, 23.976 кадр/с
  • Аудио №1: DTS, 6 ch, 755 Кбит/с[RUS]
  • Аудио №2: АС3, 6 ch, 256 Кбит/с[RUS]
  • Аудио №3: DTS, 6 ch, 1510 Кбит/с[DAT]

MI

Код: copyText_writeLink('this.parentNode.parentNode.nextSibling.nextSibling'); General
Unique ID : 238654685404074339627504940542413101586 (0xB38B38729C085347B2692CD03105DA12)
Complete name : D:\Фильмы\Ronal.varvar.2011.MPEG-4-AVC.BluRay-Remux(1080p).mkv
Format : Matroska
File size : 12.6 GiB
Duration : 1h 29mn
Overall bit rate : 20.2 Mbps
Encoded date : UTC 2012-02-05 15:54:42
Writing application : mkvmerge v4.9.1 ('Ich will') сборка от Aug 10 2011 09:31:20
Writing library : libebml v1.2.1 + libmatroska v1.2.0
Video
ID : 1
Format : AVC
Format/Info : Advanced Video Codec
Format profile : [url=mailto:High@L4.1]High@L4.1[/url]
Format settings, CABAC : Yes
Format settings, ReFrames : 4 frames
Codec ID : V_MPEG4/ISO/AVC
Duration : 1h 29mn
Bit rate mode : Variable
Bit rate : 17.3 Mbps
Maximum bit rate : 30.0 Mbps
Width : 1 920 pixels
Height : 1 080 pixels
Display aspect ratio : 16:9
Frame rate : 25.000 fps
Original frame rate : 23.976 fps
Standard : NTSC
Color space : YUV
Chroma subsampling : 4:2:0
Bit depth : 8 bits
Scan type : Progressive
Bits/(Pixel*Frame) : 0.333
Stream size : 10.8 GiB (86%)
Color primaries : BT.709-5, BT.1361, IEC 61966-2-4, SMPTE RP177
Transfer characteristics : BT.709-5, BT.1361
Matrix coefficients : BT.709-5, BT.1361, IEC 61966-2-4 709, SMPTE RP177
Audio #1
ID : 2
Format : DTS
Format/Info : Digital Theater Systems
Codec ID : A_DTS
Duration : 1h 29mn
Bit rate mode : Constant
Bit rate : 755 Kbps
Channel(s) : 6 channels
Channel positions : Front: L C R, Side: L R, LFE
Sampling rate : 48.0 KHz
Bit depth : 16 bits
Compression mode : Lossy
Stream size : 482 MiB (4%)
Title : DUB
Language : Russian
Audio #2
ID : 3
Format : AC-3
Format/Info : Audio Coding 3
Mode extension : CM (complete main)
Codec ID : A_AC3
Duration : 1h 29mn
Bit rate mode : Constant
Bit rate : 256 Kbps
Channel(s) : 6 channels
Channel positions : Front: L C R, Side: L R, LFE
Sampling rate : 48.0 KHz
Bit depth : 16 bits
Compression mode : Lossy
Stream size : 163 MiB (1%)
Title : MVO
Language : Russian
Audio #3
ID : 4
Format : DTS
Format/Info : Digital Theater Systems
Codec ID : A_DTS
Duration : 1h 29mn
Bit rate mode : Constant
Bit rate : 1 510 Kbps
Channel(s) : 6 channels
Channel positions : Front: L C R, Side: L R, LFE
Sampling rate : 48.0 KHz
Bit depth : 24 bits
Compression mode : Lossy
Stream size : 964 MiB (7%)
Language : Dutch
Text #1
ID : 5
Format : PGS
Muxing mode : zlib
Codec ID : S_HDMV/PGS
Codec ID/Info : The same subtitle format used on BDs/HD-DVDs
Language : Dutch
Text #2
ID : 6
Format : PGS
Muxing mode : zlib
Codec ID : S_HDMV/PGS
Codec ID/Info : The same subtitle format used on BDs/HD-DVDs
Language : Norwegian

Скриншоты


_________________
Показать сообщения:    

Текущее время: Сегодня 17:32

Часовой пояс: GMT



Вы не можете начинать темы
Вы не можете отвечать на сообщения
Вы не можете редактировать свои сообщения
Вы не можете удалять свои сообщения
Вы не можете голосовать в опросах
Вы не можете прикреплять файлы к сообщениям
Вы не можете скачивать файлы