Ивановский Торрент трекер
Яндекс.Погода
 

[Цитировать]
mihis

Роммель / Rommel
Год выпуска: 2012
Страна: Германия, Франция, Австрия, ARD Degeto Film, Bayerischer Rundfunk (BR), Cactus Films
Жанр: Историческая драма, военный, биография
Продолжительность: 01:58:38
Перевод: Авторский (одноголосый, закадровый) Юрий Сербин + Оригинал
Субтитры: Нет
Режиссер: Николаус Штайн Фон Каменский
В ролях: Ульрих Тукур, Тим Бергманн, Рольф Канис, Артур Клемт, Томас Лимпинзель, Патрик Мёллекен, Роберт Шупп, Питер Вульф, Хабертус Хартманн, Клаус Й. Берендт, Михаэль Кранц, Ганс Кремер, Питер Кремер, Вики Крипс, Оливер Негеле, Хари Принц, Беньямин Задлер
Описание: В январе 1944 Роммель был назначен командующим группой армий «В» в Северной Франции. Он попытался сделать «Атлантический вал» серьёзным препятствием для противника. Однако из-за стратегических разногласий с командующим всей войсковой группировкой во Франции - фельдмаршалом Рундштедтом, единый план обороны западной границы рейха не был выработан, что и привело к неоперативности и несогласованности действий немецких войск во время высадки союзников в Нормандии 6 июня 1944 года.

Качество: BDRip-AVC
Формат: MKV
Видео кодек: H.264
Аудио кодек: AC3
Видео: AVC, 1024x576 (16:9), 25.000 fps, 3 200 Kbps (0.217 bit/pixel)
Аудио #1: AC-3, 48.0 KHz, 6 ch, 448 Kbps, CBR Rus
Аудио #2: AC-3, 48.0 KHz, 6 ch, 448 Kbps, CBR Ger

MediaInfo

Общее
Уникальный идентификатор : 221690332334869544612164280154694256235 (0xA6C80143E931AAFA8426DD8C9C42866B)
Полное имя : D:Mои раздачиRommel.2012.BDRip.(AVC)-MediaClub.mkv
Формат : Matroska
Версия формата : Version 4 / Version 2
Размер файла : 3,39 Гбайт
Продолжительность : 1 ч. 58 м.
Общий поток : 4097 Кбит/сек
Дата кодирования : UTC 2013-08-04 18:23:37
Программа кодирования : mkvmerge v6.3.0 ('You can't stop me!') built on Jul 19 2013 16:27:38
Библиотека кодирования : libebml v1.3.0 + libmatroska v1.4.1
Видео
Идентификатор : 1
Формат : AVC
Формат/Информация : Advanced Video Codec
Профиль формата : High@L4.1
Параметр CABAC формата : Да
Параметр ReFrames формата : 9 кадров
Идентификатор кодека : V_MPEG4/ISO/AVC
Продолжительность : 1 ч. 58 м.
Битрейт : 3200 Кбит/сек
Ширина : 1024 пикселя
Высота : 576 пикселей
Соотношение сторон : 16:9
Режим частоты кадров : Постоянный
Частота кадров : 25,000 кадров/сек
Цветовое пространство : YUV
Субдискретизация насыщенности : 4:2:0
Битовая глубина : 8 бит
Тип развёртки : Прогрессивная
Бит/(Пиксели*Кадры) : 0.217
Размер потока : 2,58 Гбайт (76%)
Заголовок : -=MediaClub-kaspr=-
Библиотека кодирования : x264 core 130 r2273 b3065e6
Настройки программы : cabac=1 / ref=9 / deblock=1:-3:-3 / analyse=0x3:0x133 / me=umh / subme=11 / psy=1 / psy_rd=1.00:0.20 / mixed_ref=1 / me_range=32 / chroma_me=1 / trellis=2 / 8x8dct=1 / cqm=0 / deadzone=21,11 / fast_pskip=0 / chroma_qp_offset=-3 / threads=12 / lookahead_threads=3 / sliced_threads=0 / nr=0 / decimate=0 / interlaced=0 / bluray_compat=0 / constrained_intra=0 / bframes=10 / b_pyramid=2 / b_adapt=2 / b_bias=0 / direct=3 / weightb=1 / open_gop=0 / weightp=2 / keyint=250 / keyint_min=25 / scenecut=40 / intra_refresh=0 / rc=2pass / mbtree=0 / bitrate=3200 / ratetol=1.0 / qcomp=0.60 / qpmin=0 / qpmax=69 / qpstep=4 / cplxblur=20.0 / qblur=0.5 / ip_ratio=1.40 / pb_ratio=1.30 / aq=1:1.00
Default : Да
Forced : Да
Аудио #1
Идентификатор : 2
Формат : AC-3
Формат/Информация : Audio Coding 3
Расширение режима : CM (complete main)
Параметр Endianness формата : Big
Идентификатор кодека : A_AC3
Продолжительность : 1 ч. 58 м.
Вид битрейта : Постоянный
Битрейт : 448 Кбит/сек
Каналы : 6 каналов
Расположение каналов : Front: L C R, Side: L R, LFE
Частота : 48,0 КГц
Битовая глубина : 16 бит
Метод сжатия : С потерями
Размер потока : 380 Мбайт (11%)
Заголовок : Ю. Сербин
Язык : Russian
Default : Да
Forced : Да
Аудио #2
Идентификатор : 3
Формат : AC-3
Формат/Информация : Audio Coding 3
Расширение режима : CM (complete main)
Параметр Endianness формата : Big
Идентификатор кодека : A_AC3
Продолжительность : 1 ч. 58 м.
Вид битрейта : Постоянный
Битрейт : 448 Кбит/сек
Каналы : 6 каналов
Расположение каналов : Front: L C R, Side: L R, LFE
Частота : 48,0 КГц
Битовая глубина : 16 бит
Метод сжатия : С потерями
Размер потока : 380 Мбайт (11%)
Заголовок : Оригинал
Язык : German
Default : Нет
Forced : Нет
Меню
00:00:00.000 : en:Chapter 01
00:05:00.000 : en:Chapter 02
00:10:00.000 : en:Chapter 03
00:15:00.000 : en:Chapter 04
00:20:00.000 : en:Chapter 05
00:25:00.000 : en:Chapter 06
00:30:00.000 : en:Chapter 07
00:35:00.000 : en:Chapter 08
00:40:00.000 : en:Chapter 09
00:45:00.000 : en:Chapter 10
00:50:00.000 : en:Chapter 11
00:55:00.000 : en:Chapter 12
01:00:00.000 : en:Chapter 13
01:05:00.000 : en:Chapter 14
01:10:00.000 : en:Chapter 15
01:15:00.000 : en:Chapter 16
01:20:00.000 : en:Chapter 17
01:25:00.000 : en:Chapter 18
01:30:00.000 : en:Chapter 19
01:35:00.000 : en:Chapter 20
01:40:00.000 : en:Chapter 21
01:45:00.000 : en:Chapter 22
01:50:00.000 : en:Chapter 23
01:55:00.000 : en:Chapter 24
Показать сообщения:    

Текущее время: 19-Окт 21:08

Часовой пояс: UTC - 1


Вы не можете начинать темы
Вы не можете отвечать на сообщения
Вы не можете редактировать свои сообщения
Вы не можете удалять свои сообщения
Вы не можете голосовать в опросах
Вы не можете прикреплять файлы к сообщениям
Вы не можете скачивать файлы

!ВНИМАНИЕ!
Сайт не предоставляет электронные версии произведений, а занимается лишь коллекционированием и каталогизацией ссылок, присылаемых и публикуемых на форуме нашими читателями. Если вы являетесь правообладателем какого-либо представленного материала и не желаете, чтобы ссылка на него находилась в нашем каталоге, свяжитесь с нами, и мы незамедлительно удалим ее. Файлы для обмена на трекере предоставлены пользователями сайта, и администрация не несет ответственности за их содержание. Просьба не заливать файлы, защищенные авторскими правами, а также файлы нелегального содержания!