Важное объявление!
У Нас Все раздачи мультитрекерные, при нуле пиров в релизах, можете смело вставать на закачку!
 
Автор Сообщение

HUNTER

Стаж:
4 года 8 месяцев
Сообщений:
62091

Репутация: 101

[+] [-]
Вне форума [Профиль] [ЛС]

Романтические часы / Romantica Clock / ロマンチカ クロックСтрана: Япония
Выпуск: c 04.02.2014 по 25.02.2014
Жанр: романтика, школа, сёдзё
Тип/Продолжительность: ТВ (3 эп.), 1 мин.
Снято по манге: Romantica Clock
Автор оригинала: Маки Ёко-Субтитры:

  • русские, софтсаб, внешними файлами от Shojosei
    перевод: sys3x; редактура: Music Cat

    Озвучка:
  • двухголосая (муж./жен.), внешними файлами от Sahawk & Freya (AniMedia)-Описание:
    Краткий пересказ первых глав манги "Романтические часы" про близняшек Аканэ и Аой.-Информационные ссылки: World Art || AniDB || MAL
    -Качество: WEBRip | Тип видео: Без хардсаба | Формат: MP4
    Видео: 1920x1080, 23.976 f/s, H.264, 8 bits, 2 712 Kb/s
    Аудио JAP: 44.1 KHz, AAC, 2 channels, 126 Kb/s
    Аудио RUS: 48.0 KHz, AAC, 2 channels, 192 Kb/s
    -Подробные тех. данные
    Код:
    [color=black]Общее
    Полное имя                       : D:\[Flash-Ost]\Anime\Романтические часы [Romantica Clock]\Romantica Clock  1 (YT 1920x1080 x264 AAC).mp4
    Формат                           : MPEG-4
    Профиль формата                  : Base Media
    Идентификатор кодека             : isom
    Размер файла                     : 19,2 Мбайт
    Продолжительность                : 1 м. 20 с.
    Общий поток                      : 2015 Кбит/сек
    Программа кодирования            : Lavf55.12.100
    Видео
    Идентификатор                    : 1
    Формат                           : AVC
    Формат/Информация                : Advanced Video Codec
    Профиль формата                  : High@L4.0
    Параметр CABAC формата           : Да
    Параметр ReFrames формата        : 3 кадры
    Параметры GOP формата            : M=2, N=35
    Идентификатор кодека             : avc1
    Идентификатор кодека/Информация  : Advanced Video Coding
    Продолжительность                : 1 м. 19 с.
    Вид битрейта                     : Переменный
    Битрейт                          : 1885 Кбит/сек
    Ширина                           : 1920 пикс.
    Высота                           : 1080 пикс.
    Соотношение сторон               : 16:9
    Режим частоты кадров             : Постоянный
    Частота кадров                   : 23,976 кадр/сек
    Цветовое пространство            : YUV
    Подвыборка цветности             : 4:2:0
    Битовая глубина                  : 8 бит
    Тип развёртки                    : Прогрессивная
    Бит/(Пиксели*Кадры)              : 0.038
    Размер потока                    : 18,0 Мбайт (93%)
    Аудио
    Идентификатор                    : 2
    Формат                           : AAC
    Формат/Информация                : Advanced Audio Codec
    Профиль формата                  : LC
    Идентификатор кодека             : 40
    Продолжительность                : 1 м. 20 с.
    Вид битрейта                     : Постоянный
    Битрейт                          : 126 Кбит/сек
    Канал(ы)                         : 2 канала(ов)
    Расположение каналов             : Front: L R
    Частота                          : 44,1 КГц
    Метод сжатия                     : С потерями
    Размер потока                    : 1,20 Мбайт (6%)[/color]
    Скриншоты

  • _________________
    Показать сообщения:    

    Текущее время: Сегодня 22:07

    Часовой пояс: GMT



    Вы не можете начинать темы
    Вы не можете отвечать на сообщения
    Вы не можете редактировать свои сообщения
    Вы не можете удалять свои сообщения
    Вы не можете голосовать в опросах
    Вы не можете прикреплять файлы к сообщениям
    Вы не можете скачивать файлы
    Наши партнеры: интернет магазин Ивановского трикотажа textilla.ru