Роллеры / Roll Bounce (Малкольм Д. Ли / Malcolm D. Lee) [2005, США, драма, мелодрама, комедия, музыка, HDTV 1080i] MVO :: Ивановский Торрент трекер
Важное объявление!
У Нас Все раздачи мультитрекерные, при нуле пиров в релизах, можете смело вставать на закачку!
 
Автор Сообщение

HUNTER

Стаж:
4 года 11 месяцев
Сообщений:
66051

Репутация: 101

[+] [-]
Вне форума [Профиль] [ЛС]

Роллеры / Roll Bounce
Страна: США
Жанр: драма, мелодрама, комедия, музыка
Год выпуска: 2005
Продолжительность: 01:43:56
Перевод: Профессиональный (многоголосый закадровый)
Cубтитры: нет
Оригинальная аудиодорожка: нет
Режиссер: Малкольм Д. Ли / Malcolm D. Lee
В ролях: Бау Вау, Чи МакБрайд, Миган Гуд, Уэсли Джонатан, Маркус Т. Полк, Рик Гонсалес, Джерни Смоллетт, Брэндон Т. Джексон, Хлео Томас, Келлита Смит, Майк Эппс, Чарльз К. Мерфи, Ник Кэннон
Описание: 1970-е. Главным увлечением юного Икса и его приятелей являются роликовые коньки и надо сказать, что они достигли в этом виде спорта немалых успехов, по праву считаясь самой продвинутой командой в округе. Но приходят трудные времена. Прекращает существование их домашняя тренировочная база, что, конечно же, заставляет друзей призадуматься. Решение находится. Их новым пристанищем для тренировок становится скейт-каток Свитвотер. Именно здесь дворовые роллеры смогут по-настоящему раскрыть свой талант, обучившись самым невероятным трюкам, а так же завести приятные знакомства с очаровательными девчонками, восхищенно следящими за каждым шагом отважных экстремалов.
Доп. информация: По сравнению с DVD картинка обрезана, а по качеству - сравнить не с чем, только если с DVDRip
Сэмпл: http://multi-up.com/1079414
Тип релиза: HDTV 1080i
Контейнер: TS
Видео: AVC, 1920x1080 (16:9), 25.000 fps, 10.1 Mbps (0.194 bit/pixel)
Аудио: MP2, 48.0 KHz, 2 ch, 192 Kbps, CBR (Russian)

MediaInfo

Общее
Идентификатор : 3 (0x3)
Полное имя : N:\МОИ РАЗДАЧИ\Роллеры.ts
Формат : MPEG-TS
Размер файла : 7,83 Гбайт
Продолжительность : 1 ч. 43 м.
Режим общего битрейта : Переменный
Общий поток : 10,8 Мбит/сек
Видео
Идентификатор : 2141 (0x85D)
Идентификатор меню : 21004 (0x520C)
Формат : AVC
Формат/Информация : Advanced Video Codec
Профиль формата : Main@L4
Параметр CABAC формата : Да
Параметр ReFrames формата : 3 кадра
Идентификатор кодека : 27
Продолжительность : 1 ч. 43 м.
Битрейт : 10,1 Мбит/сек
Ширина : 1920 пикселей
Высота : 1080 пикселей
Соотношение сторон : 16:9
Частота кадров : 25,000 кадров/сек
Стандарт вещания : Component
Цветовое пространство : YUV
Субдискретизация насыщенности : 4:2:0
Битовая глубина : 8 бит
Тип развёртки : Чересстрочная
Порядок развёртки : Верхнее поле первое
Бит/(Пиксели*Кадры) : 0.194
Размер потока : 7,31 Гбайт (93%)
Цветовой диапазон : Limited
Основные цвета : BT.709
Характеристики трансфера : BT.709
Коэффициенты матрицы : BT.709
Аудио
Идентификатор : 2142 (0x85E)
Идентификатор меню : 21004 (0x520C)
Формат : MPEG Audio
Версия формата : Version 1
Профиль формата : Layer 2
Идентификатор кодека : 4
Продолжительность : 1 ч. 43 м.
Вид битрейта : Постоянный
Битрейт : 192 Кбит/сек
Каналы : 2 канала
Частота : 48,0 КГц
Метод сжатия : С потерями
Задержка видео : -15 мс.
Размер потока : 143 Мбайт (2%)
Язык : Russian

Скриншоты


_________________
Показать сообщения:    

Текущее время: Сегодня 02:08

Часовой пояс: GMT



Вы не можете начинать темы
Вы не можете отвечать на сообщения
Вы не можете редактировать свои сообщения
Вы не можете удалять свои сообщения
Вы не можете голосовать в опросах
Вы не можете прикреплять файлы к сообщениям
Вы не можете скачивать файлы