Ивановский Торрент трекер
Яндекс.Погода
 

[Цитировать]
HUNTER

Рок ку-ка-ре-ку / Rock-A-Doodle
Страна: Ирландия, США, Великобритания
Жанр: Мультфильм,детский
Продолжительность: 01:11:03
Год выпуска: 1991
Перевод: Студийный (одноголосый закадровый)
Русские субтитры: нет
Режиссёр: Дон Блат /Don Bluth
Роли озвучивали: Соррелл Бук /Sorrell Booke , Кристофер Пламмер /Christopher Plummer
Описание: Каждое утро петух Шантеклер будил своей песней солнце. Это очень не нравилось злому филину по прозвищу Великий Герцог, ненавидевшему свет и любившему ночную тьму. Одним прекрасным утром, когда Шантеклер дрался с другим петухом, солнце взошло без его песни. И тогда опозоренный певец покинул родную ферму, чтобы найти счастье в большом городе. И тут же солнце перестало всходить, а над землей нависли огромные черные тучи. Великий Герцог уже празднует победу, но обитатели фермы во главе с пушистым белым котенком Эдмондом отправляются в рискованное путешествие в надежде найти Шантеклера и вернуть украденное солнце ...
Доп. информация: Известный детский мультфильм с озвучкой от Первого Канала. В интернете найти нереально.
Качество: DVDRip
Формат: MP4
Видео: H264 - MPEG4-AVC, 720x544, 15, 3000 кбит/сек
Аудио: AAC, 44100 кгц, стерео, 160 кбит/сек
Субтитры: отсутствуют

Подробные технические данные

GeneralComplete name : D:\VIDEO\Рок-Кукареку.mp4Format : MPEG-4Format profile : Base Media / Version 2Codec ID : mp42 (mp42)File size : 1.57 GiBDuration : 1h 11mnOverall bit rate : 3 160 KbpsCodirector : codirectorProduction studio : studioContentType : Unknown TypeEncoded date : UTC 2015-10-27 19:41:47Tagged date : UTC 2015-10-27 19:41:47
VideoID : 1Format : AVCFormat/Info : Advanced Video CodecFormat profile : Baseline@L3Format settings, CABAC : NoFormat settings, ReFrames : 1 frameFormat settings, GOP : M=1, N=25Muxing mode : Container profile=Baseline@4.1Codec ID : avc1Codec ID/Info : Advanced Video CodingDuration : 1h 11mnBit rate : 2 996 KbpsWidth : 720 pixelsHeight : 544 pixelsDisplay aspect ratio : 4:3Frame rate mode : ConstantFrame rate : 15.000 fpsColor space : YUVChroma subsampling : 4:2:0Bit depth : 8 bitsScan type : ProgressiveBits/(Pixel*Frame) : 0.510Stream size : 1.49 GiB (95%)Language : English
AudioID : 2Format : AACFormat/Info : Advanced Audio CodecFormat profile : LCCodec ID : 40Duration : 1h 11mnBit rate mode : ConstantBit rate : 159 KbpsChannel(s) : 2 channelsChannel positions : Front: L RSampling rate : 44.1 KHzFrame rate : 43.066 fps (1024 spf)Compression mode : LossyStream size : 81.1 MiB (5%)Title : StereoLanguage : EnglishDefault : YesAlternate group : 1

Скриншоты



0 человек читают эту тему: 0 пользователей, 0 скрытых пользователей, 0 гостей

Показать сообщения:    

Текущее время: 23-Авг 18:43

Часовой пояс: UTC - 1


Вы не можете начинать темы
Вы не можете отвечать на сообщения
Вы не можете редактировать свои сообщения
Вы не можете удалять свои сообщения
Вы не можете голосовать в опросах
Вы не можете прикреплять файлы к сообщениям
Вы не можете скачивать файлы

!ВНИМАНИЕ!
Сайт не предоставляет электронные версии произведений, а занимается лишь коллекционированием и каталогизацией ссылок, присылаемых и публикуемых на форуме нашими читателями. Если вы являетесь правообладателем какого-либо представленного материала и не желаете, чтобы ссылка на него находилась в нашем каталоге, свяжитесь с нами, и мы незамедлительно удалим ее. Файлы для обмена на трекере предоставлены пользователями сайта, и администрация не несет ответственности за их содержание. Просьба не заливать файлы, защищенные авторскими правами, а также файлы нелегального содержания!