Важное объявление!
У Нас Все раздачи мультитрекерные, при нуле пиров в релизах, можете смело вставать на закачку!
 
Автор Сообщение

димитри37

Стаж:
3 года 10 месяцев
Сообщений:
1237

Репутация: 127

[+] [-]
Вне форума [Профиль] [ЛС]

Рок-н-ролл под Кремлем
Год выпуска: 2013
Производство: Россия, Кинокомпания "Талан"
Жанр: Боевик
Продолжительность: ~0:45:00 серия
Субтитры: нет
Режиссёр: Евгений Сологалов
В ролях: Дмитрий Ратомский, Александр Барановский, Всеволод Болдин, Кирилл Каганович, Мария Малиновская (Бурыкина), Сергей Багаев, Александр Никольский (II), Валерий Новиков
Описание: В руки молодого выпускника академии ФСБ Юрия Евсеева попадает кассета, на которой записан вербовочный разговор агента ЦРУ и выпускника летного училища. Анализ показывает, что этой записи уже 30 лет. Молодой лейтенант Евсеев обнаруживает прослушивающее устройство и пытается выйти на шпиона. Но расследование только кажется бесперспективным…
Качество: SATRip
Формат: AVI
Видео кодек: XviD
Аудио кодек: MP3
Видео: 704x400 (1.76:1), 25 fps, XviD MPEG-4 ~1794 kbps avg, 0.26 bit/pixel
Аудио: 48 kHz, MPEG Layer 3, 2 ch, ~128.00 kbps avg
Сторонней рекламы нет!

MediaInfo

ОбщееПолное имя : D:\Рок-н-ролл под Кремлем SATRip XviD\Рок-н-ролл под Кремлем 01_серия_SATRip_XviD_by_Серый1779.aviФормат : AVIФормат/Информация : Audio Video InterleaveРазмер файла : 628 МбайтПродолжительность : 45 м.Общий поток : 1932 Кбит/секБиблиотека кодирования : VirtualDub build 32507/release
ВидеоИдентификатор : 0Формат : MPEG-4 VisualПрофиль формата : Advanced Simple@L5Параметр BVOP формата : 2Параметр QPel формата : НетПараметр GMC формата : Без точки переходаПараметр матрицы формата : Default (H.263)Режим смешивания : Сжатый битовый потокИдентификатор кодека : XVIDИдентификатор кодека/Подсказка : XviDПродолжительность : 45 м.Битрейт : 1795 Кбит/секШирина : 704 пикс.Высота : 400 пикс.Соотношение сторон : 16:9Частота кадров : 25,000 кадр/секЦветовое пространство : YUVПодвыборка цветности : 4:2:0Битовая глубина : 8 битТип развёртки : ПрогрессивнаяМетод сжатия : С потерямиБит/(Пиксели*Кадры) : 0.255Размер потока : 583 Мбайт (93%)Библиотека кодирования : XviD 1.1.2 (UTC 2006-11-01)
АудиоИдентификатор : 1Формат : MPEG AudioВерсия формата : Version 1Профиль формата : Layer 3Режим : Joint stereoРасширение режима : MS StereoИдентификатор кодека : 55Идентификатор кодека/Подсказка : MP3Продолжительность : 45 м.Вид битрейта : ПостоянныйБитрейт : 128 Кбит/секКаналы : 2 каналаЧастота : 48,0 КГцМетод сжатия : С потерямиРазмер потока : 41,6 Мбайт (7%)Выравнивание : Разделение по промежуткамПродолжительность промежутка : 40 мс. (1,00 видеокадр)Время предзагрузки промежутка : 500 ms

Скриншоты

Показать сообщения:    

Текущее время: Сегодня 09:50

Часовой пояс: GMT



Вы не можете начинать темы
Вы не можете отвечать на сообщения
Вы не можете редактировать свои сообщения
Вы не можете удалять свои сообщения
Вы не можете голосовать в опросах
Вы не можете прикреплять файлы к сообщениям
Вы не можете скачивать файлы
Наши партнеры: интернет магазин Ивановского трикотажа textilla.ru