Важное объявление!
У Нас Все раздачи мультитрекерные, при нуле пиров в релизах, можете смело вставать на закачку!
 
Автор Сообщение

HUNTER

Стаж:
4 года 8 месяцев
Сообщений:
62116

Репутация: 101

[+] [-]
Вне форума [Профиль] [ЛС]

Роковое число 23 / Номер 23 / The Number 23-«От правды не уйдёшь»
-Страна: США, Германия
Студии: New Line Cinema, Contrafilm, Firm Films, KUMAR Mobiliengesellschaft mbH & Co. Projekt Nr. 1 KG
Жанр: Триллер, детектив
Год выпуска: 2007
Версия: UNRATED
Продолжительность: 01:41:16-Перевод 1: Профессиональный (многоголосый закадровый) Киномания
Перевод 2: Профессиональный (двухголосый закадровый) Пётр Иващенко (Гланц) и Инна Королёва
Перевод 3: Авторский (одноголосый закадровый) Ю.Немахов
Перевод 4: Профессиональный (многоголосый закадровый) Пифагор
Cубтитры: русские, английские
Оригинальная аудиодорожка: английский-Режиссер: Джоэл Шумахер / Joel Schumacher-В ролях: Джим Керри /Jim Carrey/, Вирджиния Мэдсен /Virginia Madsen/, Логан Лерман /Logan Lerman/, Дэнни Хьюстон /Danny Huston/, Линн Коллинз /Lynn Collins/, Рона Митра /Rhona Mitra/, Мишель Артур /Michelle Arthur/, Марк Пеллегрино /Mark Pellegrino/, Эд Лотер /Ed Lauter/-Описание: Сотрудник службы по отлову бездомных животных Уолтер Спэрроу берется за чтение загадочного романа «Номер 23», который подарила ему на день рождения его жена Агата. В итоге тихая и спокойная жизнь Уолтера превращается в невыносимые муки, которые могут привести и его, и близких ему людей к самому печальному концу. А виной всему — число 23. Дело в том, что роман, в котором рассказывается о жутком убийстве, представляет собой зеркальное отражение жизни самого Уолтера.
То, что происходит с главным героем книги, угрюмым детективом Фингерлингом, слишком уж напоминает Уолтеру его собственную судьбу. По мере того, как описанные в романе события начинают повторяться в реальной жизни, Уолтер, как и Фингерлинг, подпадает под странную власть числа 23, которое он видит повсюду. В конце концов он приходит к убеждению, что ему суждено совершить такое же чудовищное убийство, какое совершил Фингерлинг. Изменить же будущее Уолтер сможет только раскрыв тайну числа…-Доп. информация:

Автор: MECHANICAL ENGINEER-Качество видео: BD.Remux (Blu-Ray)
Формат видео : MKV
Видео кодек : VC-1
Видео: 1920x1080 (16:9); 23.976 fps; VC-1; 22986 kbps
Аудио #0: DTS, 48.0 KHz, 6 ch, 755 Kbps | Киномания - многоголосый
Аудио #1: DTS MA, 48.0 KHz, 6 ch, 2181 Kbps / 1509 Kbps | П.Гланц и И.Королёва
Аудио #2: DTS, 48.0 KHz, 6 ch, 755 Kbps | Ю.Немахов
Аудио #3: 48 kHz; 2 ch; 192.00 kbps; AC3 Dolby Digital | Пифагор - многоголосый
Аудио #4: DTS, 48.0 KHz, 6 ch, 755 Kbps | Украинский - IHTEP
Аудио #5: DTS MA, 48.0 KHz, 6 ch, 2199 Kbps / 1509 Kbps | Английский
Аудио #6: 48 kHz; 2 ch; 192.00 kbps; AC3 Dolby Digital | Английский - комментарии
Формат субтитров: softsub (SRT) : Русские, английские, датские, португальские, шведские-Дорожка #1 получена наложением чистых голосов на центр декодированного DTS-HD MA оригинала.
Сохранены оригинальные чаптеры как на Blu-ray.
-

MediaInfo

Код:
Format                                   : Matroska
Format version                           : Version 2
File size                                : 21.2 GiB
Duration                                 : 1h 41mn
Overall bit rate mode                    : Variable
Overall bit rate                         : 30.0 Mbps
Movie name                               : Роковое число 23 / The Number 23 [UNCUT] (2007)
Encoded date                             : UTC 2015-05-06 09:01:46
Writing application                      : mkvmerge v4.3.0 ('Escape from the Island') built on Sep  5 2010 10:30:51
Writing library                          : libebml v1.0.0 + libmatroska v1.0.0
Video
ID                                       : 1
Format                                   : VC-1
Format profile                           : Advanced@L3
Codec ID                                 : V_MS/VFW/FOURCC / WVC1
Codec ID/Hint                            : Microsoft
Duration                                 : 1h 41mn
Width                                    : 1 920 pixels
Height                                   : 1 080 pixels
Display aspect ratio                     : 16:9
Frame rate mode                          : Constant
Frame rate                               : 23.976 fps
Color space                              : YUV
Chroma subsampling                       : 4:2:0
Bit depth                                : 8 bits
Scan type                                : Progressive
Compression mode                         : Lossy
Title                                    : MECHANICAL ENGINEER (Blu-Ray) 23.04.2015
Default                                  : Yes
Forced                                   : No
Audio #1
ID                                       : 2
Format                                   : DTS
Format/Info                              : Digital Theater Systems
Mode                                     : 16
Format settings, Endianness              : Big
Codec ID                                 : A_DTS
Duration                                 : 1h 41mn
Bit rate mode                            : Constant
Bit rate                                 : 755 Kbps
Channel(s)                               : 6 channels
Channel positions                        : Front: L C R, Side: L R, LFE
Sampling rate                            : 48.0 KHz
Bit depth                                : 24 bits
Compression mode                         : Lossy
Stream size                              : 547 MiB (3%)
Title                                    : Киномания - многоголосый
Language                                 : Russian
Default                                  : Yes
Forced                                   : No
Audio #2
ID                                       : 3
Format                                   : DTS
Format/Info                              : Digital Theater Systems
Format profile                           : MA / Core
Mode                                     : 16
Format settings, Endianness              : Big
Codec ID                                 : A_DTS
Duration                                 : 1h 41mn
Bit rate mode                            : Variable
Bit rate                                 : Unknown / 1 509 Kbps
Channel(s)                               : 6 channels
Channel positions                        : Front: L C R, Side: L R, LFE
Sampling rate                            : 48.0 KHz
Bit depth                                : 16 bits
Compression mode                         : Lossless / Lossy
Title                                    : Пётр Иващенко (Гланц) и Инна Королёва
Language                                 : Russian
Default                                  : No
Forced                                   : No
Audio #3
ID                                       : 4
Format                                   : DTS
Format/Info                              : Digital Theater Systems
Mode                                     : 16
Format settings, Endianness              : Big
Codec ID                                 : A_DTS
Duration                                 : 1h 41mn
Bit rate mode                            : Constant
Bit rate                                 : 755 Kbps
Channel(s)                               : 6 channels
Channel positions                        : Front: L C R, Side: L R, LFE
Sampling rate                            : 48.0 KHz
Bit depth                                : 24 bits
Compression mode                         : Lossy
Stream size                              : 547 MiB (3%)
Title                                    : Юрий Немахов
Language                                 : Russian
Default                                  : No
Forced                                   : No
Audio #4
ID                                       : 5
Format                                   : AC-3
Format/Info                              : Audio Coding 3
Mode extension                           : CM (complete main)
Format settings, Endianness              : Big
Codec ID                                 : A_AC3
Duration                                 : 1h 41mn
Bit rate mode                            : Constant
Bit rate                                 : 192 Kbps
Channel(s)                               : 2 channels
Channel positions                        : Front: L R
Sampling rate                            : 48.0 KHz
Bit depth                                : 16 bits
Compression mode                         : Lossy
Stream size                              : 139 MiB (1%)
Title                                    : Пифагор - многоголосый
Language                                 : Russian
Default                                  : No
Forced                                   : No
Audio #5
ID                                       : 6
Format                                   : DTS
Format/Info                              : Digital Theater Systems
Mode                                     : 16
Format settings, Endianness              : Big
Codec ID                                 : A_DTS
Duration                                 : 1h 41mn
Bit rate mode                            : Constant
Bit rate                                 : 755 Kbps
Channel(s)                               : 6 channels
Channel positions                        : Front: L C R, Side: L R, LFE
Sampling rate                            : 48.0 KHz
Bit depth                                : 24 bits
Compression mode                         : Lossy
Stream size                              : 547 MiB (3%)
Title                                    : Украинский - многоголосый - IHTEP
Language                                 : Ukrainian
Default                                  : No
Forced                                   : No
Audio #6
ID                                       : 7
Format                                   : DTS
Format/Info                              : Digital Theater Systems
Format profile                           : MA / Core
Mode                                     : 16
Format settings, Endianness              : Big
Codec ID                                 : A_DTS
Duration                                 : 1h 41mn
Bit rate mode                            : Variable
Bit rate                                 : Unknown / 1 509 Kbps
Channel(s)                               : 6 channels
Channel positions                        : Front: L C R, Side: L R, LFE
Sampling rate                            : 48.0 KHz
Bit depth                                : 16 bits
Compression mode                         : Lossless / Lossy
Title                                    : Английский - оригинал
Language                                 : English
Default                                  : No
Forced                                   : No
Audio #7
ID                                       : 8
Format                                   : AC-3
Format/Info                              : Audio Coding 3
Format profile                           : Dolby Digital
Mode extension                           : CM (complete main)
Format settings, Endianness              : Big
Codec ID                                 : A_AC3
Duration                                 : 1h 41mn
Bit rate mode                            : Constant
Bit rate                                 : 192 Kbps
Channel(s)                               : 2 channels
Channel positions                        : Front: L R
Sampling rate                            : 48.0 KHz
Bit depth                                : 16 bits
Compression mode                         : Lossy
Stream size                              : 139 MiB (1%)
Title                                    : Английский - комментарии
Language                                 : English
Default                                  : No
Forced                                   : No
Text #1
ID                                       : 9
Format                                   : UTF-8
Codec ID                                 : S_TEXT/UTF8
Codec ID/Info                            : UTF-8 Plain Text
Title                                    : Русские - полные - Киномания
Language                                 : Russian
Default                                  : No
Forced                                   : No
Text #2
ID                                       : 10
Format                                   : UTF-8
Codec ID                                 : S_TEXT/UTF8
Codec ID/Info                            : UTF-8 Plain Text
Title                                    : Английские
Language                                 : English
Default                                  : No
Forced                                   : No
Text #3
ID                                       : 11
Format                                   : UTF-8
Codec ID                                 : S_TEXT/UTF8
Codec ID/Info                            : UTF-8 Plain Text
Title                                    : Датские
Language                                 : Danish
Default                                  : No
Forced                                   : No
Text #4
ID                                       : 12
Format                                   : UTF-8
Codec ID                                 : S_TEXT/UTF8
Codec ID/Info                            : UTF-8 Plain Text
Title                                    : Португальские
Language                                 : Portuguese
Default                                  : No
Forced                                   : No
Text #5
ID                                       : 13
Format                                   : UTF-8
Codec ID                                 : S_TEXT/UTF8
Codec ID/Info                            : UTF-8 Plain Text
Title                                    : Шведские
Language                                 : Swedish
Default                                  : No
Forced                                   : No
Menu
00:00:00.000                             : en:00:00:00.000
00:04:30.270                             : en:00:04:30.270
00:06:10.369                             : en:00:06:10.369
00:09:08.506                             : en:00:09:08.506
00:13:31.143                             : en:00:13:31.143
00:16:04.505                             : en:00:16:04.505
00:21:29.079                             : en:00:21:29.079
00:23:59.396                             : en:00:23:59.396
00:31:10.535                             : en:00:31:10.535
00:37:23.366                             : en:00:37:23.366
00:40:32.054                             : en:00:40:32.054
00:47:11.036                             : en:00:47:11.036
00:51:21.286                             : en:00:51:21.286
00:56:23.922                             : en:00:56:23.922
01:01:27.141                             : en:01:01:27.141
01:06:53.801                             : en:01:06:53.801
01:10:04.325                             : en:01:10:04.325
01:14:22.583                             : en:01:14:22.583
01:19:19.337                             : en:01:19:19.337
01:25:50.228                             : en:01:25:50.228
01:33:50.791                             : en:01:33:50.791
01:35:10.871                             : en:01:35:10.871
01:36:13.517                             : en:01:36:13.517
01:41:15.861                             : en:01:41:15.861

avdump

Код:
File: Rokovoe.Chislo.23.2007.UNCUT.BD.Remux.1080p.VC-1.DTS-HD.AC3.-ENGINEER.mkv
Duration: 01:41:17 (6076.74)
Track #1: video (MECHANICAL ENGINEER (Blu-Ray) 23.04.2015)
  lang: und (1)
  codc: V_MS/VFW/FOURCC/WVC1 -> Codec not recognized. (255)
  reso: 1920x1080 -> 16:9
  fram: 23.976 fps
  rate: 22986 kbps (22985.7)
  dura: 01:41:17 (6076.7)
  size: 16.26 GB (17459632448)
Track #2: audio (Киномания - многоголосый)
  lang: rus -> Russian (15)
  codc: A_DTS -> DTS (13)
  chan: 6 -> 5.1 Surround
  samp: 48000 Hz
  rate: 755 kbps (754.61)
  dura: 01:41:16 (6076.08)
  size: 546.58 MB (573130631)
Track #3: audio (Пётр Иващенко (Гланц) и Инна Королёва)
  lang: rus -> Russian (15)
  codc: A_DTS -> DTS (13)
  chan: 6 -> 5.1 Surround
  samp: 48000 Hz
  rate: 2181 kbps (2180.64)
  dura: 01:41:17 (6076.68)
  size: 1.54 GB (1656380173)
Track #4: audio (Ю.Немахов)
  lang: rus -> Russian (15)
  codc: A_DTS -> DTS (13)
  chan: 6 -> 5.1 Surround
  samp: 48000 Hz
  rate: 755 kbps (754.61)
  dura: 01:41:16 (6076.00)
  size: 546.58 MB (573127109)
Track #5: audio (Пифагор - многоголосый)
  lang: rus -> Russian (15)
  codc: A_AC3 -> AC3 (2)
  chan: 2 -> Stereo
  samp: 48000 Hz
  rate: 192 kbps (192.04)
  dura: 01:41:17 (6076.61)
  size: 139.11 MB (145870440)
Track #6: audio (Украинский - многоголосый - IHTEP)
  lang: ukr -> Unknown (1)
  codc: A_DTS -> DTS (13)
  chan: 6 -> 5.1 Surround
  samp: 48000 Hz
  rate: 755 kbps (754.60)
  dura: 01:41:17 (6076.68)
  size: 546.63 MB (573185890)
Track #7: audio (Оригинальная - Английский)
  lang: Unknown (1)
  codc: A_DTS -> DTS (13)
  chan: 6 -> 5.1 Surround
  samp: 48000 Hz
  rate: 2199 kbps (2198.76)
  dura: 01:41:17 (6076.68)
  size: 1.56 GB (1670145299)
Track #8: audio (Английский - комментарии)
  lang: Unknown (1)
  codc: A_AC3 -> AC3 (2)
  chan: 2 -> Stereo
  samp: 48000 Hz
  rate: 192 kbps (192.04)
  dura: 01:41:17 (6076.61)
  size: 139.11 MB (145872006)
Track #9: subtitles (Русские - полные - Киномания)
  lang: rus -> Russian (15)
  type: S_TEXT/UTF8 -> SRT (3)
  size: 56.58 KB (57942)
Track #10: subtitles (Английские)
  lang: Unknown (1)
  type: S_TEXT/UTF8 -> SRT (3)
  size: 36.90 KB (37790)
Track #11: subtitles (Датские)
  lang: dan -> Danish (28)
  type: S_TEXT/UTF8 -> SRT (3)
  size: 33.22 KB (34016)
Track #12: subtitles (Португальские)
  lang: por -> Portuguese (21)
  type: S_TEXT/UTF8 -> SRT (3)
  size: 35.34 KB (36184)
Track #13: subtitles (Шведские)
  lang: swe -> Swedish (19)
  type: S_TEXT/UTF8 -> SRT (3)
  size: 37.47 KB (38368)
Sizes: (check sanity)
  disk: 21.24 GB (22802371177)
  trac: 5.23 GB (5617679112) [based on track size]
  bitr: 21.23 GB (22797479432) [based on bitrate]
  tdif: 16.00 GB (17184692065) 75.36%
  bdif: 4.67 MB (4891744) 0.02%

Скриншоты превью - увеличение по клику):




Сравнения

Фото подтверждение, что ремукс с той раздачи скачан полностью

Семпл с битыми кадрами
http://rutracker.org/forum/viewtopic.php?t=2359946 => http://screenshotcomparison.com/comparison/123569
_________________ -Jackal- ___________________________ MECHANICAL ENGINEER _________




ПРИЯТНОГО ПРОСМОТРА!

_________________
Показать сообщения:    

Текущее время: Сегодня 18:50

Часовой пояс: GMT



Вы не можете начинать темы
Вы не можете отвечать на сообщения
Вы не можете редактировать свои сообщения
Вы не можете удалять свои сообщения
Вы не можете голосовать в опросах
Вы не можете прикреплять файлы к сообщениям
Вы не можете скачивать файлы
Наши партнеры: интернет магазин Ивановского трикотажа textilla.ru