Ивановский Торрент трекер
Яндекс.Погода
 

[Цитировать]
HUNTER

Рой Джонс vs Антонио Тарвер 2 бой
Вид спорта: Бокс
Участники: Рой Джонс vs Антонио Тарвер
Дата/Год выпуска: 15/05/2004
Язык комментариев: Русский
Комментатор:Владимир Ильич Гендлин
Описание: Бой за титул чемпиона мира по версии WBA,WBC,IBO и The Ring в полутяжёлом весе!
США, штат Невада, Лас-Вегас, Mandalay Bay Resort & Casino
Трансляция:HBOPPV
Рефери:Джей Нейди
Судьи:Дуэйн Форд,Дэйв Моретти,Джерри Ротт
Автор рипа/записи:bimbo83,Запись с канала НТВ+ из домашней коллекции
(могу раздавать с 9:00-21:00 по московскому времени)
На сайте есть раздача этого боя
http://rutracker.org/forum/viewtopic.php?t=1922860
Качество: TVRip
Формат видео: AVI
Видео: Xvid 704x504(16:9),25fps,5557kbps,0.62 bit/pixel
Аудио: MP3 48000Hz stereo 128kbps

MediaInfo

General
Complete name : H:\Бокс\Рой Джонс vs Антонио Тарвер 2 Бой.avi
Format : AVI
Format/Info : Audio Video Interleave
File size : 786 MiB
Duration : 19mn 17s
Overall bit rate : 5 697 Kbps
Writing application : XviD4PSP 6.0 / 54.29.105
Video
ID : 0
Format : MPEG-4 Visual
Format profile : Advanced Simple@L5
Format settings, BVOP : Yes
Format settings, QPel : Yes
Format settings, GMC : 3 warppoints
Format settings, Matrix : Default (MPEG)
Codec ID : XVID
Codec ID/Hint : XviD
Duration : 19mn 17s
Bit rate : 5 557 Kbps
Width : 704 pixels
Height : 504 pixels
Display aspect ratio : 16:9
Frame rate : 25.000 fps
Color space : YUV
Chroma subsampling : 4:2:0
Bit depth : 8 bits
Scan type : Progressive
Compression mode : Lossy
Bits/(Pixel*Frame) : 0.626
Stream size : 767 MiB (98%)
Writing library : XviD 64
Audio
ID : 1
Format : MPEG Audio
Format version : Version 1
Format profile : Layer 3
Mode : Joint stereo
Mode extension : MS Stereo
Codec ID : 55
Codec ID/Hint : MP3
Duration : 19mn 17s
Bit rate mode : Constant
Bit rate : 128 Kbps
Channel(s) : 2 channels
Sampling rate : 48.0 KHz
Compression mode : Lossy
Stream size : 17.7 MiB (2%)
Alignment : Aligned on interleaves
Interleave, duration : 24 ms (0.60 video frame)

Продолжительность

00:19:18

Скриншоты

Счёт/Итог

Победа присуждается Антонио Тарверу ,KO 2
Показать сообщения:    

Текущее время: 26-Сен 15:18

Часовой пояс: UTC - 1


Вы не можете начинать темы
Вы не можете отвечать на сообщения
Вы не можете редактировать свои сообщения
Вы не можете удалять свои сообщения
Вы не можете голосовать в опросах
Вы не можете прикреплять файлы к сообщениям
Вы не можете скачивать файлы

!ВНИМАНИЕ!
Сайт не предоставляет электронные версии произведений, а занимается лишь коллекционированием и каталогизацией ссылок, присылаемых и публикуемых на форуме нашими читателями. Если вы являетесь правообладателем какого-либо представленного материала и не желаете, чтобы ссылка на него находилась в нашем каталоге, свяжитесь с нами, и мы незамедлительно удалим ее. Файлы для обмена на трекере предоставлены пользователями сайта, и администрация не несет ответственности за их содержание. Просьба не заливать файлы, защищенные авторскими правами, а также файлы нелегального содержания!