Важное объявление!
У Нас Все раздачи мультитрекерные, при нуле пиров в релизах, можете смело вставать на закачку!
 
Автор Сообщение

димитри37

Стаж:
3 года 10 месяцев
Сообщений:
1237

Репутация: 127

[+] [-]
Вне форума [Профиль] [ЛС]

Розыгрыш
Жанр: школьная мелодрама, музыкальный
Год выпуска: 1976
Продолжительность: 01:30:59
Режиссёр: Владимир Меньшов
В ролях: Евгения Ханаева, Наталья Фатеева, Зиновий Гердт, Гарри Бардин, Павел Винник, Муза Крепкогорская, Любовь Мышева, Наталья Вавилова, Дмитрий Харатьян (вокал - Анатолий Киселев), Андрей Гусев, Александр Жильцов, Николай Константинов, Арсен Михайлов, Евдокия Германова, Ирина Кораблева, Галина Манухина, Олег Табаков, Нина Савищева, Дмитрий Николаев, Владимир Меньшов, Мария Виноградова, Алексей Борзунов, Ирина Мурзаева, Павел Максименков, Светлана Степанова, Владимир Соколов-Описание: В девятый "Б" класс московской школы приходит новенький, Игорь Грушко, семья которого переехала в столицу из Новосибирска. Игорь любит музыку, пишет песни, поёт, играет на гитаре и мечтает о создании школьного ансамбля. Однажды в его классе происходит попытка сорвать контрольную по математике. Ребята, с подачи негласного лидера Олега Комаровского, заявляют, что о контрольной их добрая, но строгая и принципиальная классная руководительница заранее не предупреждала. И заслуженный педагог Мария Васильевна Девятова, незадолго до своего 55-летнего юбилея получившая вот такой "подарок", верит, в ужасе решив, что она потеряла память и у нее, в силу возрастных изменений, начинается склероз. Значит, ей пора уходить из школы на пенсию. А для нее, вырастившей бессчетное количество Комаровских и иже с ними (32 выпуска), вся жизнь сосредоточена в работе. К счастью, выясняется, что это была ложь. Солгали все вызванные, кроме Таи Петровой, врать органически не способной. После разоблачения старшеклассники начинают утверждать, что это была шутка, розыгрыш. Но тем, кто солгал, поставили "колы", включая Олега Комаровского, которому единица по математике закрыла дорогу к международной олимпиаде...
Доп. информация: Первая роль в кино Дмитрия Харатьяна и первая большая роль Евдокии Германовой. Лидер проката (1977, 10 место) - 33.8 млн. зрителей.
Сценарий: Семён Лунгин
Оператор: Михаил Биц
Художник: Борис Бланк
Композитор: Александр Флярковский
Стихи: Алексей Дидуров
Вокал: ВИА "Добры молодцы"
Награды: премия за лучшее исполнение женской роли Евгении Ханаевой, специальный диплом за сценарий Семену Лунгину на ВКФ в Риге (1977); Государственная премия РСФСР имени Н.К.Крупской 1978 года (Семен Лунгин, Владимир Меньшов, Михаил Биц, Евгения Ханаева); "Алая гвоздика" - приз ЦК ВЛКСМ за лучший фильм 1976 года для детей и юношества
Ограничения на просмотр: для любой зрительской аудитории

Интересный факт

В 2008 году по этому фильму был снят одноименный ремейк, где Дмитрий Харатьян сыграл роль отца Олега Комаровского (в новом фильме — Комарова), а Евдокия Германова — роль мамы Таи Петровой.
Саундтрек: http://rutracker.org/forum/viewtopic.php?t=1272794 (альбом "При самом рождении дня")
Качество видео: DVDRip
Формат видео: AVI
Видео: 704x304 (2.32:1), 25 fps, XviD 1.2.1, 1834 kbps avg, 0.34 bit/pixel
Аудио: 48 kHz, AC3 Dolby Digital, 3/2 (L,C,R,l,r) + LFE ch, 448.00 kbps avg

MediaInfo

Полное имя : Rosygrysh.avi
Формат : AVI
Формат/Информация : Audio Video Interleave
Размер файла : 1,46 Гбайт
Продолжительность : 1 ч. 30 м.
Общий поток : 2293 Кбит/сек
Программа кодирования : VirtualDubMod 1.5.10.3 (build 2550/release)
Библиотека кодирования : VirtualDubMod build 2550/release
Видео
Идентификатор : 0
Формат : MPEG-4 Visual
Профиль формата : Advanced Simple@L5
Параметр BVOP формата : 2
Параметр QPel формата : Нет
Параметр GMC формата : Без точки перехода
Параметр матрицы формата : Выборочная
Идентификатор кодека : XVID
Идентификатор кодека/Подсказка : XviD
Продолжительность : 1 ч. 30 м.
Битрейт : 1835 Кбит/сек
Ширина : 704 пикселя
Высота : 304 пикселя
Соотношение сторон : 2,35:1
Частота кадров : 25,000 кадров/сек
Цветовое пространство : YUV
Субдискретизация насыщенности : 4:2:0
Битовая глубина : 8 бит
Тип развёртки : Прогрессивная
Метод сжатия : С потерями
Бит/(Пиксели*Кадры) : 0.343
Размер потока : 1,17 Гбайт (80%)
Библиотека кодирования : XviD 1.2.1 (UTC 2008-12-04)
Аудио
Идентификатор : 1
Формат : AC-3
Формат/Информация : Audio Coding 3
Расширение режима : CM (complete main)
Параметр Endianness формата : Big
Идентификатор кодека : 2000
Продолжительность : 1 ч. 30 м.
Вид битрейта : Постоянный
Битрейт : 448 Кбит/сек
Каналы : 6 каналов
Расположение каналов : Front: L C R, Side: L R, LFE
Частота : 48,0 КГц
Битовая глубина : 16 бит
Метод сжатия : С потерями
Размер потока : 292 Мбайт (20%)
Выравнивание : Разделение по промежуткам
Продолжительность промежутка : 40 мс. (1,00 видеокадр)
Время предзагрузки промежутка : 500 мс.

Сравнение

http://rutracker.org/forum/viewtopic.php?t=1082371 - с конкурентом
http://screenshotcomparison.com/comparison/2309/ + нарушен AR (2.25 вместо 2.35), перекроп

Подтверждение AR 2.35

Показать сообщения:    

Текущее время: Сегодня 04:36

Часовой пояс: GMT



Вы не можете начинать темы
Вы не можете отвечать на сообщения
Вы не можете редактировать свои сообщения
Вы не можете удалять свои сообщения
Вы не можете голосовать в опросах
Вы не можете прикреплять файлы к сообщениям
Вы не можете скачивать файлы
Наши партнеры: интернет магазин Ивановского трикотажа textilla.ru