Важное объявление!
У Нас Все раздачи мультитрекерные, при нуле пиров в релизах, можете смело вставать на закачку!
 
Автор Сообщение

HUNTER

Стаж:
4 года 9 месяцев
Сообщений:
65057

Репутация: 101

[+] [-]
Вне форума [Профиль] [ЛС]

Розетта: посадка на комету
Comet Catcher: The Rosetta Landing

Дата/Год выпуска: 11.11.2014
Страна: Великобритания
Жанр: Документальное
Продолжительность: 00:43:34
Перевод: Одноголосый закадровый (профессиональный)
Русские субтитры: нет
Оригинальная аудиодорожка: нет
Режиссер: Рори Гриффин / Rory Griffin
Описание: В пятистах миллионов километров от Земли космический аппарат пытается совершить невозможное - "Розетта" отправит на поверхность кометы спускаемый аппарат - это уникальная попытка в истории космических полетов. Комета летит со скоростью 65 тыс. км/ч. С её поверхности вырываются тонны пыли, газа и льда. Посадка на неё требует колоссальных усилий. В случае успеха миссия даст ответ на один из важнейших вопросов человечества - как зародилась жизнь на Земле.
Сэмпл: https://www.sendspace.com/file/dsvgar
Качество: SATRip
формат: AVI
Видео: XVID, 720*400, 16:9, 1450 kbps, 25 fps
Аудио: AC3, 192 kbps, 48 kHz, 2 channels

MediaInfo

GeneralComplete name : D:\Comet Catcher. The Rosetta Landing (2014).aviFormat : AVIFormat/Info : Audio Video InterleaveFile size : 515 MiBDuration : 43mn 34sOverall bit rate : 1 652 KbpsWriting application : VirtualDubMod 1.5.10.3 | www.virtualdub-fr.org || (build 2550/release)Writing library : VirtualDubMod build 2550/release
VideoID : 0Format : MPEG-4 VisualFormat profile : Advanced Simple@L5Format settings, BVOP : 1Format settings, QPel : NoFormat settings, GMC : No warppointsFormat settings, Matrix : Default (H.263)Codec ID : XVIDCodec ID/Hint : XviDDuration : 43mn 34sBit rate : 1 450 KbpsWidth : 720 pixelsHeight : 400 pixelsDisplay aspect ratio : 16:9Frame rate : 25.000 fpsColor space : YUVChroma subsampling : 4:2:0Bit depth : 8 bitsScan type : ProgressiveCompression mode : LossyBits/(Pixel*Frame) : 0.201Stream size : 452 MiB (88%)Writing library : XviD 73
AudioID : 1Format : AC-3Format/Info : Audio Coding 3Mode extension : CM (complete main)Format settings, Endianness : BigCodec ID : 2000Duration : 43mn 34sBit rate mode : ConstantBit rate : 192 KbpsChannel(s) : 2 channelsChannel positions : Front: L RSampling rate : 48.0 KHzBit depth : 16 bitsCompression mode : LossyStream size : 59.8 MiB (12%)Alignment : Split accross interleavesInterleave, duration : 40 ms (1.00 video frame)Interleave, preload duration : 500 ms

Скриншоты



_________________
Показать сообщения:    

Текущее время: Сегодня 13:51

Часовой пояс: GMT



Вы не можете начинать темы
Вы не можете отвечать на сообщения
Вы не можете редактировать свои сообщения
Вы не можете удалять свои сообщения
Вы не можете голосовать в опросах
Вы не можете прикреплять файлы к сообщениям
Вы не можете скачивать файлы