Рождённая свободной / Born Free (Джеймс Хилл, Том Макгоун / James Hill, Tom McGowan) [1966, Великобритания, США, драма, приключения, семейный, BDRip 720p] DVO + Sub Rus, Eng + Original Eng :: Ивановский Торрент трекер
Важное объявление!
У Нас Все раздачи мультитрекерные, при нуле пиров в релизах, можете смело вставать на закачку!
Статистика раздачи
Размер:     |    Зарегистрирован:     |    Скачан:     |   
Нет
 
     
 
 
Автор Сообщение

HUNTER

Стаж:
4 года 11 месяцев
Сообщений:
66066

Репутация: 101

[+] [-]
Вне форума [Профиль] [ЛС]

Рождённая свободной / Born Free
Страна: Великобритания, США
Жанр: драма, приключения, семейный
Год выпуска: 1966
Продолжительность: 01:35:06
Перевод: Профессиональный (двухголосый закадровый)
Cубтитры: русские, английские
Оригинальная аудиодорожка: английский-Режиссер: Джеймс Хилл, Том Макгоун / James Hill, Tom McGowan-В ролях: Вирджиния МакКенна, Билл Треверс, Джеффри Кин, Питер Лукойе, Омар Чамбати, Билл Годден, Брайан Эпсом, Роберт Читэм, Роберт С. Янг, Джеффри Бест-Описание: Фильм был снят в Африканской саванне по одноименному бестселлеру известной писательницы и натуралиста Джой Адамсон. Картина рассказывает о судьбе львицы Эльзы, еще детенышем попавшей к супругам Адамсон. Они не только спасают малышку от неминуемой гибели, но и, вырастив ее, возвращают назад в дикую природу потому, что она была рождена свободной. Авторам удалось превосходно запечатлеть и передать с помощью средств кино красоту природы и животного мира Кении.-Релиз: -Качество видео: BDRip
Формат видео: MKV
Видео: MPEG-4 AVC, 8455 Кбит/с, 1280x544, 23.976 Кадр/с
Аудио: Dolby Digital Audio Russian 192 kbps 2.0 / 48 kHz / 192 kbps / DN -4dB
Аудио: Dolby Digital Audio Ukrainian 192 kbps 2.0 / 48 kHz / 192 kbps / DN -4dB
Аудио: DTS Audio English 768 kbps 1.0 / 48 kHz / 768 kbps- -

MediaInfo

Код:
Format                                   : Matroska
Format version                           : Version 2
File size                                : 6.38 GiB
Duration                                 : 1h 35mn
Overall bit rate                         : 9 608 Kbps
Movie name                               : Born.Free.1966.x264.BDRip.720p.BLUEBIRD
Encoded date                             : UTC 2016-02-12 10:13:52
Writing application                      : mkvmerge v7.9.0 ('Birds') 64bit
Writing library                          : libebml v1.3.1 + libmatroska v1.4.2
Video
ID                                       : 1
Format                                   : AVC
Format/Info                              : Advanced Video Codec
Format profile                           : High@L4.1
Format settings, CABAC                   : Yes
Format settings, ReFrames                : 12 frames
Codec ID                                 : V_MPEG4/ISO/AVC
Duration                                 : 1h 35mn
Bit rate                                 : 8 455 Kbps
Width                                    : 1 280 pixels
Height                                   : 544 pixels
Display aspect ratio                     : 2.35:1
Frame rate                               : 23.976 fps
Color space                              : YUV
Chroma subsampling                       : 4:2:0
Bit depth                                : 8 bits
Scan type                                : Progressive
Bits/(Pixel*Frame)                       : 0.506
Stream size                              : 5.50 GiB (86%)
Title                                    : Born.Free.1966.x264.BDRip.720p.BLUEBIRD
Writing library                          : x264 core 148 r2638 7599210
Encoding settings                        : cabac=1 / ref=12 / deblock=1:-2:-2 / analyse=0x3:0x113 / me=umh / subme=10 / psy=1 / psy_rd=1.05:0.05 / mixed_ref=1 / me_range=48 / chroma_me=1 / trellis=2 / 8x8dct=1 / cqm=0 / deadzone=21,11 / fast_pskip=0 / chroma_qp_offset=-3 / threads=12 / lookahead_threads=3 / sliced_threads=0 / nr=0 / decimate=0 / interlaced=0 / bluray_compat=0 / constrained_intra=0 / bframes=9 / b_pyramid=2 / b_adapt=2 / b_bias=0 / direct=3 / weightb=1 / open_gop=1 / weightp=2 / keyint=240 / keyint_min=23 / scenecut=40 / intra_refresh=0 / rc=2pass / mbtree=0 / bitrate=8455 / ratetol=1.0 / qcomp=0.60 / qpmin=0 / qpmax=69 / qpstep=4 / cplxblur=20.0 / qblur=0.5 / ip_ratio=1.40 / pb_ratio=1.30 / aq=2:1.10
Language                                 : English
Default                                  : Yes
Forced                                   : No
Audio #1
ID                                       : 2
Format                                   : AC-3
Format/Info                              : Audio Coding 3
Mode extension                           : CM (complete main)
Codec ID                                 : A_AC3
Duration                                 : 1h 35mn
Bit rate mode                            : Constant
Bit rate                                 : 192 Kbps
Channel(s)                               : 2 channels
Channel positions                        : Front: L R
Sampling rate                            : 48.0 KHz
Bit depth                                : 16 bits
Compression mode                         : Lossy
Stream size                              : 131 MiB (2%)
Title                                    : Профессиональный двухголосый
Language                                 : Russian
Default                                  : Yes
Forced                                   : No
Audio #2
ID                                       : 3
Format                                   : AC-3
Format/Info                              : Audio Coding 3
Mode extension                           : CM (complete main)
Codec ID                                 : A_AC3
Duration                                 : 1h 35mn
Bit rate mode                            : Constant
Bit rate                                 : 192 Kbps
Channel(s)                               : 2 channels
Channel positions                        : Front: L R
Sampling rate                            : 48.0 KHz
Bit depth                                : 16 bits
Compression mode                         : Lossy
Stream size                              : 131 MiB (2%)
Title                                    : Профессиональный двухголосый (1+1)
Language                                 : Ukrainian
Default                                  : No
Forced                                   : No
Audio #3
ID                                       : 4
Format                                   : DTS
Format/Info                              : Digital Theater Systems
Codec ID                                 : A_DTS
Duration                                 : 1h 35mn
Bit rate mode                            : Constant
Bit rate                                 : 755 Kbps
Channel(s)                               : 1 channel
Channel positions                        : Front: C
Sampling rate                            : 48.0 KHz
Bit depth                                : 24 bits
Compression mode                         : Lossy
Stream size                              : 513 MiB (8%)
Language                                 : English
Default                                  : No
Forced                                   : No
Text #1
ID                                       : 5
Format                                   : UTF-8
Codec ID                                 : S_TEXT/UTF8
Codec ID/Info                            : UTF-8 Plain Text
Title                                    : full
Language                                 : Russian
Default                                  : No
Forced                                   : No
Text #2
ID                                       : 6
Format                                   : UTF-8
Codec ID                                 : S_TEXT/UTF8
Codec ID/Info                            : UTF-8 Plain Text
Title                                    : full
Language                                 : English
Default                                  : No
Forced                                   : No
Text #3
ID                                       : 7
Format                                   : UTF-8
Codec ID                                 : S_TEXT/UTF8
Codec ID/Info                            : UTF-8 Plain Text
Title                                    : SDH
Language                                 : English
Default                                  : No
Forced                                   : No
Menu
00:00:00.000                             : en:00:00:00
00:04:09.624                             : en:00:04:09
00:07:43.045                             : en:00:07:43
00:12:31.709                             : en:00:12:31
00:15:48.446                             : en:00:15:48
00:19:44.683                             : en:00:19:44
00:24:56.869                             : en:00:24:56
00:28:11.648                             : en:00:28:11
00:30:53.101                             : en:00:30:53
00:34:59.472                             : en:00:34:59
00:38:23.426                             : en:00:38:23
00:45:08.080                             : en:00:45:08
00:47:31.431                             : en:00:47:31
00:51:11.902                             : en:00:51:11
00:54:44.406                             : en:00:54:44
00:59:10.964                             : en:00:59:10
01:04:56.142                             : en:01:04:56
01:07:04.478                             : en:01:07:04
01:11:38.502                             : en:01:11:38
01:15:25.020                             : en:01:15:25
01:20:00.670                             : en:01:20:00
01:22:21.853                             : en:01:22:21
01:27:58.898                             : en:01:27:58
01:31:04.457                             : en:01:31:04

Скриншоты


_________________
Показать сообщения:    

Текущее время: Сегодня 19:13

Часовой пояс: GMT



Вы не можете начинать темы
Вы не можете отвечать на сообщения
Вы не можете редактировать свои сообщения
Вы не можете удалять свои сообщения
Вы не можете голосовать в опросах
Вы не можете прикреплять файлы к сообщениям
Вы не можете скачивать файлы