Важное объявление!
У Нас Все раздачи мультитрекерные, при нуле пиров в релизах, можете смело вставать на закачку!
 
Автор Сообщение

HUNTER

Стаж:
4 года 6 месяцев
Сообщений:
60959

Репутация: 101

[+] [-]
Вне форума [Профиль] [ЛС]

Рождество с Джейми Оливером / Jamie Oliver Christmas with bells on
Страна: Соединённое Королевство Великобритании и Северной Ирландии
Тематика: Кулинарное шоу
Тип раздаваемого материала: Видеоурок
Продолжительность: 00:46:47
Год выпуска: 2011

Язык: Русский + Английский
Перевод: Профессиональный (одноголосый)
Язык субтитров: нет
Описание: Харизматичный повар Джейми Оливер научит вас готовить классические праздничные блюда, а также добавит в вашу копилку несколько смелых и неожиданных рецептов, идеальных для торжеств и вечеринок.
Доп. информация:

Чистая запись с канала FoxLife без перекодирования.

MediaInfo

Код:
General
ID                                       : 16 (0x10)
Complete name                            : E:\Jamie\Jamie Oliver Christmas with bells on\jamie.oliver.christmas.with.bells on.S01.E01.DVB.ts
Format                                   : MPEG-TS
File size                                : 1.01 GiB
Duration                                 : 46mn 47s
Overall bit rate mode                    : Variable
Overall bit rate                         : 3 080 Kbps
Video
ID                                       : 41 (0x29)
Menu ID                                  : 3 (0x3)
Format                                   : MPEG Video
Format version                           : Version 2
Format profile                           : Main@Main
Format settings, BVOP                    : Yes
Format settings, Matrix                  : Custom
Format settings, GOP                     : Variable
Codec ID                                 : 2
Duration                                 : 46mn 47s
Bit rate mode                            : Variable
Bit rate                                 : 2 540 Kbps
Maximum bit rate                         : 5 000 Kbps
Width                                    : 720 pixels
Height                                   : 576 pixels
Display aspect ratio                     : 16:9
Frame rate                               : 25.000 fps
Standard                                 : PAL
Color space                              : YUV
Chroma subsampling                       : 4:2:0
Bit depth                                : 8 bits
Scan type                                : Interlaced
Scan order                               : Top Field First
Compression mode                         : Lossy
Bits/(Pixel*Frame)                       : 0.245
Time code of first frame                 : 00:00:00:00
Time code source                         : Group of pictures header
Stream size                              : 850 MiB (82%)
Audio #1
ID                                       : 44 (0x2C)
Menu ID                                  : 3 (0x3)
Format                                   : MPEG Audio
Format version                           : Version 1
Format profile                           : Layer 2
Codec ID                                 : 3
Duration                                 : 46mn 47s
Bit rate mode                            : Constant
Bit rate                                 : 192 Kbps
Channel count                            : 2 channels
Sampling rate                            : 48.0 KHz
Compression mode                         : Lossy
Stream size                              : 64.2 MiB (6%)
Audio #2
ID                                       : 45 (0x2D)
Menu ID                                  : 3 (0x3)
Format                                   : MPEG Audio
Format version                           : Version 1
Format profile                           : Layer 2
Codec ID                                 : 3
Duration                                 : 46mn 47s
Bit rate mode                            : Constant
Bit rate                                 : 192 Kbps
Channel count                            : 2 channels
Sampling rate                            : 48.0 KHz
Compression mode                         : Lossy
Stream size                              : 64.2 MiB (6%)
Качество: DVB
Формат: TS
Видео кодек: MPEG2
Аудио кодек: MP2
Видео: MPEG2 Video 720x576 (16:9) 25fps 2 540 Kbps
Аудио: MPEG Audio 48000Hz stereo 192kbps
Аудио 2: MPEG Audio 48000Hz stereo 192kbps

Скриншоты.Яндекс


Скриншоты.Fastpic



_________________
Показать сообщения:    

Текущее время: Сегодня 12:16

Часовой пояс: GMT



Вы не можете начинать темы
Вы не можете отвечать на сообщения
Вы не можете редактировать свои сообщения
Вы не можете удалять свои сообщения
Вы не можете голосовать в опросах
Вы не можете прикреплять файлы к сообщениям
Вы не можете скачивать файлы
Наши партнеры: интернет магазин Ивановского трикотажа textilla.ru