Важное объявление!
У Нас Все раздачи мультитрекерные, при нуле пиров в релизах, можете смело вставать на закачку!
 
Автор Сообщение

HUNTER

Стаж:
4 года 9 месяцев
Сообщений:
65070

Репутация: 101

[+] [-]
Вне форума [Профиль] [ЛС]

Рождественское приключение
Abominable Christmas
Год выпуска: 2012
Страна: США
Жанр: мультфильм, комедия
Продолжительность: 00:43:29
Перевод: Профессиональный (Дублированный) канал "Дисней"
субтитры: отсутствуют-Режиссёр: Чад Ван Де Кир : Chad Van De Keere-Роли озвучивали: Изабелла Акрес, Дрейк Белл, Эмилио Эстевес, Нолан Гоулд, Мэттью Лиллард, Рэй Лиотта, Джейн Линч, Эриель Винтер
Роли дублировали: Людмила Иванова, Михаил Тихонов, Жанна Никонова, Владимир Рыбальченко, Людмила Ильина-Описание: В Рождество нет ничего невозможного! Особенно, если ты... снежный человек! Веселая семейка мохнатых созданий живет высоко в горах и собирается спуститься в город, где люди готовятся к празднованию самого сказочного праздника в году! Они не сомневаются, что жители примут пушистых гостей радушно, но как на самом деле развернутся события?- релиз: -- Работа с HDTV'ом и звуком -Azureus--Качество: HDTV 1080p
Формат: MKV
Видео кодек: MPEG2
Аудио кодек: AC3
Видео: 1980x1080 , 29.970 fps, ~16,6 Мbps avg, 0.267 bit/pixel
Аудио #1: [RUS] 48 kHz, AC3 Dolby Digital, 2/0 (L,R) ch, ~192 kbps avg
Аудио #2: [ENG] 48 kHz, AC3 Dolby Digital, 3/2 (L,C,R,l,r) + LFE ch, ~448 kbps

MediaInfo

Общее
Уникальный идентификатор : 234598841346889974578551080541871927911 (0xB07E17E5944F015680341958226FF267)
Полное имя : D:\Im\Рождественское приключение\Abominable Christmas.2012.HDTV 1080p.mkv
Формат : Matroska
Версия формата : Version 4 / Version 2
Размер файла : 5,34 Гбайт
Продолжительность : 43 м.
Режим общего битрейта : Переменный
Общий поток : 17,6 Мбит/сек
Название фильма : Abominable Christmas.2012.HDTV 1080p -Azureus-
Дата кодирования : UTC 2014-10-24 15:40:20
Программа кодирования : mkvmerge v7.3.0 ('Nouages') 32bit built on Oct 22 2014 18:44:01
Библиотека кодирования : libebml v1.3.0 + libmatroska v1.4.1
DURATION : 00:43:29.056000000
NUMBER_OF_FRAMES : 81533
NUMBER_OF_BYTES : 146107136
_STATISTICS_WRITING_APP : mkvmerge v7.3.0 ('Nouages') 32bit built on Oct 22 2014 18:44:01
_STATISTICS_WRITING_DATE_UTC : 2014-10-24 15:40:20
_STATISTICS_TAGS : BPS DURATION NUMBER_OF_FRAMES NUMBER_OF_BYTES
Видео
Идентификатор : 1
Формат : MPEG Video
Версия формата : Version 2
Профиль формата : Main@High
Параметр BVOP формата : Нет
Параметр матрицы формата : Выборочная
Идентификатор кодека : V_MPEG2
Идентификатор кодека/Информация : MPEG 1 or 2 Video
Продолжительность : 43 м.
Вид битрейта : Переменный
Битрейт : 16,6 Мбит/сек
Максимальный битрейт : 18,0 Мбит/сек
Ширина : 1920 пикселей
Высота : 1080 пикселей
Соотношение сторон : 16:9
Режим частоты кадров : Постоянный
Частота кадров : 29,970 кадров/сек
Цветовое пространство : YUV
Субдискретизация насыщенности : 4:2:0
Битовая глубина : 8 бит
Тип развёртки : Чересстрочная
Порядок развёртки : Верхнее поле первое
Метод сжатия : С потерями
Бит/(Пиксели*Кадры) : 0.267
Временной код первого кадра : 00:00:07;28
Оригинал временного кода : Group of pictures header
Размер потока : 5,04 Гбайт (94%)
Язык : English
Default : Да
Forced : Нет
Аудио #1
Идентификатор : 2
Формат : AC-3
Формат/Информация : Audio Coding 3
Расширение режима : CM (complete main)
Параметр Endianness формата : Big
Идентификатор кодека : A_AC3
Продолжительность : 43 м.
Вид битрейта : Постоянный
Битрейт : 192 Кбит/сек
Каналы : 2 канала
Расположение каналов : Front: L R
Частота : 48,0 КГц
Битовая глубина : 16 бит
Метод сжатия : С потерями
Задержка видео : -67 мс.
Размер потока : 59,7 Мбайт (1%)
Заголовок : DUB
Язык : Russian
Default : Да
Forced : Нет
Аудио #2
Идентификатор : 3
Формат : AC-3
Формат/Информация : Audio Coding 3
Расширение режима : CM (complete main)
Параметр Endianness формата : Big
Идентификатор кодека : A_AC3
Продолжительность : 43 м.
Вид битрейта : Постоянный
Битрейт : 448 Кбит/сек
Каналы : 6 каналов
Расположение каналов : Front: L C R, Side: L R, LFE
Частота : 48,0 КГц
Битовая глубина : 16 бит
Метод сжатия : С потерями
Задержка видео : -67 мс.
Размер потока : 139 Мбайт (3%)
Заголовок : ENG
Язык : English
Default : Нет
Forced : Нет
____________________________________________
Стою на раздаче до 5 дней.
Просьба скачавшим как можно дольше не покидать раздачу!
ВСЕМ ПРИЯТНОГО ПРОСМОТРА!_________________________________________

_________________
Показать сообщения:    

Текущее время: Сегодня 21:02

Часовой пояс: GMT



Вы не можете начинать темы
Вы не можете отвечать на сообщения
Вы не можете редактировать свои сообщения
Вы не можете удалять свои сообщения
Вы не можете голосовать в опросах
Вы не можете прикреплять файлы к сообщениям
Вы не можете скачивать файлы