Ивановский Торрент трекер
Яндекс.Погода
 

[Цитировать]
HUNTER

Рождественское приключение / Abominable Christmas- Страна: США
Жанр: мультфильм, семейный
Продолжительность: 00:43:37
Год выпуска: 2012
Перевод: Профессиональный (дублированный) Канал "Дисней"
Русские субтитры: нет-Режиссёр: Чад Ван Де Кир / Chad Van De Keere
Роли озвучивали: Изабелла Акрес, Дрейк Белл, Эмилио Эстевес, Нолан Гоулд, Мэттью Лиллард, Рэй Лиотта, Джейн Линч, Эриель Винтер
Роли дублировали: Людмила Иванова, Михаил Тихонов, Жанна Никонова, Владимир Рыбальченко, Людмила Ильина- | Релиз: -Описание: В Рождество нет ничего невозможного! Особенно, если ты... снежный человек! Веселая семейка мохнатых созданий живет высоко в горах и собирается спуститься в город, где люди готовятся к празднованию самого сказочного праздника в году! Они не сомневаются, что жители примут пушистых гостей радушно, но как на самом деле развернутся события?-Доп. информация:
- Запись звука с эфира (канал "Дисней") и синхронизация с DVD - xfiles.
- За исходный DVD5 спасибо trytryagain@BitHQ.-Семпл: скачать-Качество: DVDRip-AVC
Формат: MKV
Видео: 720x480 (16:9) @ 854x480, 23.976 fps, AVC, ~1482 Kbps, 0.174 bits/pixel
Аудио 1: Русский, 48.0 KHz, AC3, 2 ch, 192 Kbps - Дубляж
Аудио 2: English, 48.0 KHz, AC3, 6 ch, 448 Kbps - Original
Субтитры: отсутствуют

Подробные технические данные

x264 log

x264 [info]: 720x480p 32:27 @ 24000/1001 fps (cfr)x264 [info]: using SAR=32/27x264 [info]: using cpu capabilities: MMX2 SSE2Fast SSSE3 SSE4.2 AVXx264 [info]: profile High, level 4.0x264 [info]: cabac=1 ref=16 deblock=1:-2:-1 analyse=0x3:0x133 me=umh subme=11 psy=1 fade_compensate=0.00 psy_rd=0.60:0.00 mixed_ref=1 me_range=48 chroma_me=1 trellis=2 8x8dct=1 cqm=0 deadzone=21,11 fast_pskip=0 chroma_qp_offset=-2 threads=12 lookahead_threads=3 sliced_threads=0 nr=0 decimate=1 interlaced=0 bluray_compat=0 constrained_intra=0 fgo=0 bframes=14 b_pyramid=2 b_adapt=2 b_bias=0 direct=3 weightb=1 open_gop=0 weightp=2 keyint=250 keyint_min=23 scenecut=40 intra_refresh=0 rc=crf mbtree=0 crf=16.0000 qcomp=0.60 qpmin=0 qpmax=69 qpstep=4 ip_ratio=1.40 pb_ratio=1.30 aq=3:1.00x264 [info]: frame I:666 Avg QP:13.78 size: 63963x264 [info]: frame P:15214 Avg QP:15.09 size: 15822x264 [info]: frame B:46880 Avg QP:17.60 size: 4302x264 [info]: consecutive B-frames: 3.3% 3.8% 12.0% 30.7% 17.7% 21.3% 5.0% 2.6% 1.0% 0.3% 0.3% 1.3% 0.3% 0.1% 0.2%x264 [info]: mb I I16..4: 5.6% 62.6% 31.8%x264 [info]: mb P I16..4: 0.4% 6.6% 1.8% P16..4: 21.7% 20.2% 15.1% 3.9% 0.7% skip:29.7%x264 [info]: mb B I16..4: 0.1% 1.0% 0.2% B16..8: 19.3% 12.8% 3.3% direct: 3.2% skip:60.1% L0:37.4% L1:43.5% BI:19.1%x264 [info]: 8x8 transform intra:71.9% inter:45.4%x264 [info]: direct mvs spatial:100.0% temporal:0.0%x264 [info]: coded y,uvDC,uvAC intra: 92.4% 84.8% 68.5% inter: 15.6% 11.9% 5.3%x264 [info]: i16 v,h,dc,p: 52% 16% 5% 27%x264 [info]: i8 v,h,dc,ddl,ddr,vr,hd,vl,hu: 18% 14% 14% 7% 8% 9% 8% 10% 12%x264 [info]: i4 v,h,dc,ddl,ddr,vr,hd,vl,hu: 19% 12% 6% 8% 13% 12% 11% 10% 10%x264 [info]: i8c dc,h,v,p: 33% 30% 24% 14%x264 [info]: Weighted P-Frames: Y:2.9% UV:2.3%x264 [info]: ref P L0: 52.7% 8.6% 16.0% 4.7% 4.0% 2.9% 2.6% 1.4% 1.2% 1.1% 1.0% 0.9% 0.8% 0.8% 0.8% 0.6%x264 [info]: ref B L0: 75.6% 10.1% 4.4% 2.2% 1.6% 1.3% 1.1% 0.7% 0.6% 0.5% 0.5% 0.4% 0.4% 0.3% 0.1%x264 [info]: ref B L1: 93.1% 6.9%x264 [info]: kb/s:1482.29x264 [info]: encoded 62760 frames, 18.37 fps, 1482.29 kb/s, duration 0:56:55.66

MediaInfo

GeneralUnique ID : 199028235242661611907850316750989198495 (0x95BB719D16CCEC3DB9A3580D9D72849F)Complete name : Abominable.Christmas.2012.DVDRip.AVC-rutracker.xfiles.mkvFormat : MatroskaFormat version : Version 4 / Version 2File size : 663 MiBDuration : 43mn 37sOverall bit rate : 2 124 KbpsMovie name : Abominable.Christmas.2012.DVDRip.AVC-rutracker.xfilesEncoded date : UTC 2014-02-01 18:16:06Writing application : mkvmerge v6.5.0 ('Isn't she lovely') built on Oct 20 2013 12:50:05Writing library : libebml v1.3.0 + libmatroska v1.4.1
VideoID : 1Format : AVCFormat/Info : Advanced Video CodecFormat profile : High@L4.0Format settings, CABAC : YesFormat settings, ReFrames : 16 framesCodec ID : V_MPEG4/ISO/AVCDuration : 43mn 37sBit rate : 1 442 KbpsWidth : 720 pixelsHeight : 480 pixelsDisplay aspect ratio : 16:9Frame rate mode : ConstantFrame rate : 23.976 fpsStandard : NTSCColor space : YUVChroma subsampling : 4:2:0Bit depth : 8 bitsScan type : ProgressiveBits/(Pixel*Frame) : 0.174Stream size : 450 MiB (68%)Title : http://rutracker.org/forum/viewtopic.php?t=4658087Writing library : x264 core 142 r2389kMod 956c8d8Encoding settings : cabac=1 / ref=16 / deblock=1:-2:-1 / analyse=0x3:0x133 / me=umh / subme=11 / psy=1 / fade_compensate=0.00 / psy_rd=0.60:0.00 / mixed_ref=1 / me_range=48 / chroma_me=1 / trellis=2 / 8x8dct=1 / cqm=0 / deadzone=21,11 / fast_pskip=0 / chroma_qp_offset=-2 / threads=12 / lookahead_threads=3 / sliced_threads=0 / nr=0 / decimate=1 / interlaced=0 / bluray_compat=0 / constrained_intra=0 / fgo=0 / bframes=14 / b_pyramid=2 / b_adapt=2 / b_bias=0 / direct=3 / weightb=1 / open_gop=0 / weightp=2 / keyint=250 / keyint_min=23 / scenecut=40 / intra_refresh=0 / rc=crf / mbtree=0 / crf=16.0000 / qcomp=0.60 / qpmin=0 / qpmax=69 / qpstep=4 / ip_ratio=1.40 / pb_ratio=1.30 / aq=3:1.00Language : EnglishDefault : YesForced : NoColor primaries : BT.601Transfer characteristics : BT.470 System B, BT.470 System GMatrix coefficients : BT.601
Audio #1ID : 2Format : AC-3Format/Info : Audio Coding 3Mode extension : CM (complete main)Format settings, Endianness : BigCodec ID : A_AC3Duration : 43mn 37sBit rate mode : ConstantBit rate : 192 KbpsChannel(s) : 2 channelsChannel positions : Front: L RSampling rate : 48.0 KHzBit depth : 16 bitsCompression mode : LossyStream size : 59.9 MiB (9%)Title : ДубляжLanguage : RussianDefault : YesForced : No
Audio #2ID : 3Format : AC-3Format/Info : Audio Coding 3Mode extension : CM (complete main)Format settings, Endianness : BigCodec ID : A_AC3Duration : 43mn 37sBit rate mode : ConstantBit rate : 448 KbpsChannel(s) : 6 channelsChannel positions : Front: L C R, Side: L R, LFESampling rate : 48.0 KHzBit depth : 16 bitsCompression mode : LossyStream size : 140 MiB (21%)Title : OriginalLanguage : EnglishDefault : NoForced : No
Menu00:00:00.000 : 1. Stay Safe00:07:07.227 : 2. Margaret00:13:10.923 : 3. White Fluffy Dogs00:21:39.098 : 4. Abominable Style00:34:53.358 : 5. Here's What We Do00:42:28.246 : 6. End Credit

Скриншоты



Показать сообщения:    

Текущее время: 14-Дек 23:01

Часовой пояс: UTC ± 0


Вы не можете начинать темы
Вы не можете отвечать на сообщения
Вы не можете редактировать свои сообщения
Вы не можете удалять свои сообщения
Вы не можете голосовать в опросах
Вы не можете прикреплять файлы к сообщениям
Вы не можете скачивать файлы

!ВНИМАНИЕ!
Сайт не предоставляет электронные версии произведений, а занимается лишь коллекционированием и каталогизацией ссылок, присылаемых и публикуемых на форуме нашими читателями. Если вы являетесь правообладателем какого-либо представленного материала и не желаете, чтобы ссылка на него находилась в нашем каталоге, свяжитесь с нами, и мы незамедлительно удалим ее. Файлы для обмена на трекере предоставлены пользователями сайта, и администрация не несет ответственности за их содержание. Просьба не заливать файлы, защищенные авторскими правами, а также файлы нелегального содержания!