Важное объявление!
У Нас Все раздачи мультитрекерные, при нуле пиров в релизах, можете смело вставать на закачку!
 
Автор Сообщение

HUNTER

Стаж:
4 года 11 месяцев
Сообщений:
66039

Репутация: 101

[+] [-]
Вне форума [Профиль] [ЛС]

Рождественское желание Гадкого Утенка / The Ugly Duckling's Christmas Wish
Страна: США
Жанр: мультфильм
Продолжительность: 01:09:31
Год выпуска: 1996
Перевод: Профессиональный (дублированный)
Русские субтитры: нет
Режиссёр: Расс Харрис / Russ Harris, Джерри Рейнольдс / Jerry Reynolds
Роли озвучивали: Lisa L. Buetow
Уилл Гулд
Miki Mathioudakis
Алекс Маршалл Томпсон
Эшли Захари
Описание: Этот мультфильм создан по мотивам знаменитой сказки братьев Гримм. Благодаря замечательной классической экранизации, мы вновь получим удовольствие от нестареющей истории о гадком утёнке, изгнанном из стаи собратьями, который мечтает о том, чтобы в Рождество случилось чудо, чтобы наконец-то на свете нашлось место, где он не будет лишним, и где его наконец-то полюбят.
Доп. информация: Оцифровка лицензионной VHS (личный архив) и получение VHSRip alenavova
Эксклюзив для rutracker.org. При размещении данного релиза на других сайтах ссылка на автора alenavova обязательна.

Релиз
Семпл: https://yadi.sk/i/-J7QmpSthw4iz
Качество: VHSRip
Формат: AVI
Видео: 640x480 (1.33:1), 25 fps, XviD build 50 ~1891 kbps avg, 0.25 bit/pixel
Аудио: 48 kHz, AC3 Dolby Digital, 2/0 (L,R) ch, ~192 kbps
Субтитры: отсутствуют

Подробные технические данные

Рождественское желание Гадкого Утенка - The Ugly Duckling's Christmas Wish [by alenaovova].aviFormat : AVIFormat/Info : Audio Video InterleaveFile size : 1.02 GiBDuration : 1h 9mnOverall bit rate : 2 094 KbpsMovie name : Рождественское желание Гадкого Утенка - The Ugly Duckling's Christmas Wish [by alenaovova]Director : by alenavovaWriting application : VirtualDubMod 1.5.10.2 (build 2540/release)Copyright : Edich2Comment : RuTracker.org
VideoID : 0Format : MPEG-4 VisualFormat profile : Advanced Simple@L5Format settings, BVOP : 2Format settings, QPel : NoFormat settings, GMC : No warppointsFormat settings, Matrix : CustomCodec ID : XVIDCodec ID/Hint : XviDDuration : 1h 9mnBit rate : 1 892 KbpsWidth : 640 pixelsHeight : 480 pixelsDisplay aspect ratio : 4:3Frame rate : 25.000 fpsColor space : YUVChroma subsampling : 4:2:0Bit depth : 8 bitsScan type : ProgressiveCompression mode : LossyBits/(Pixel*Frame) : 0.246Stream size : 941 MiB (90%)Writing library : XviD 1.2.1 (UTC 2008-12-04)
AudioID : 1Format : AC-3Format/Info : Audio Coding 3Mode extension : CM (complete main)Format settings, Endianness : BigCodec ID : 2000Duration : 1h 9mnBit rate mode : ConstantBit rate : 192 KbpsChannel(s) : 2 channelsChannel positions : Front: L RSampling rate : 48.0 KHzBit depth : 16 bitsCompression mode : LossyDelay relative to video : 24msStream size : 95.5 MiB (9%)Alignment : Split accross interleavesInterleave, duration : 40 ms (1.00 video frame)Interleave, preload duration : 500 ms

Скриншоты



_________________
Показать сообщения:    

Текущее время: Сегодня 07:59

Часовой пояс: GMT



Вы не можете начинать темы
Вы не можете отвечать на сообщения
Вы не можете редактировать свои сообщения
Вы не можете удалять свои сообщения
Вы не можете голосовать в опросах
Вы не можете прикреплять файлы к сообщениям
Вы не можете скачивать файлы