Важное объявление!
У Нас Все раздачи мультитрекерные, при нуле пиров в релизах, можете смело вставать на закачку!
Статистика раздачи
Размер:     |    Зарегистрирован:     |    Скачан:     |   
Нет
 
     
 
 
Автор Сообщение

HUNTER

Стаж:
5 лет
Сообщений:
67968

Репутация: 101

[+] [-]
Вне форума [Профиль] [ЛС]

Рождественская песня
A Christmas Carol: Scrooge's Ghostly Tale
Страна: США
Жанр: мультфильм
Продолжительность: 00:47:49
Год выпуска: 2006-Перевод: Профессиональный (дублированный)
Русские субтитры: нет
Режиссёр: Ric Machin / Ric Machin-Описание: В Лондоне канун Рождества, и все с волнением готовятся к сезонным праздникам, все, за исключением старого скряги Эбенезера Скруджа. Он ненавидит всех, особенно детей, и уверен, что Рождество — это сущая чепуха глупость. Но в это Рождество к нему наведываются Дух прошлого Рождества, Дух настоящего Рождества и Дух будущего Рождества. Они пугают Скруджа и тем самым заставляют его улучшить свое поведение и, наконец, Скрудж понимает истинный смысл Рождества, когда празднует его с Бобом Кратчитом, Тини Тим и их семьей.-Релиз: | | -Качество: DVDRip
Формат: AVI
Видео: 704x544 (1.29:1), 25,000 fps, XviD 66 ~1 970 kbps avg, 0.21 bit/pixel
Аудио: 48 kHz, AC3 Dolby Digital, 2/0 (L,R) ch, ~192 kbps
Субтитры: отсутствуют

MI


General
Complete name : D:\incarcare\rip gata\Rojdestvenskaya.Pesnya.2006.DVDRip.avi
Format : AVI
Format/Info : Audio Video Interleave
File size : 743 MiB
Duration : 47mn 49s
Overall bit rate : 2 172 Kbps
Writing application : VirtualDubMod 1.5.10.2 (build 2540/release)
Writing library : VirtualDubMod build 2540/release
Video
ID : 0
Format : MPEG-4 Visual
Format profile : Advanced Simple@L5
Format settings, BVOP : 1
Format settings, QPel : No
Format settings, GMC : No warppoints
Format settings, Matrix : Custom
Codec ID : XVID
Codec ID/Hint : XviD
Duration : 47mn 49s
Bit rate : 1 970 Kbps
Width : 704 pixels
Height : 544 pixels
Display aspect ratio : 1.294
Frame rate : 25.000 fps
Color space : YUV
Chroma subsampling : 4:2:0
Bit depth : 8 bits
Scan type : Progressive
Compression mode : Lossy
Bits/(Pixel*Frame) : 0.206
Stream size : 674 MiB (91%)
Writing library : XviD 66
Audio
ID : 1
Format : AC-3
Format/Info : Audio Coding 3
Mode extension : CM (complete main)
Format settings, Endianness : Big
Codec ID : 2000
Duration : 47mn 49s
Bit rate mode : Constant
Bit rate : 192 Kbps
Channel(s) : 2 channels
Channel positions : Front: L R
Sampling rate : 48.0 KHz
Compression mode : Lossy
Stream size : 65.7 MiB (9%)
Alignment : Split accross interleaves
Interleave, duration : 40 ms (1.00 video frame)
Interleave, preload duratio : 500 ms

Скриншоты


_________________
Показать сообщения:    

Текущее время: Сегодня 12:46

Часовой пояс: GMT



Вы не можете начинать темы
Вы не можете отвечать на сообщения
Вы не можете редактировать свои сообщения
Вы не можете удалять свои сообщения
Вы не можете голосовать в опросах
Вы не можете прикреплять файлы к сообщениям
Вы не можете скачивать файлы