Ивановский Торрент трекер
Яндекс.Погода
 

[Цитировать]
HUNTER

Рождественская песня / A Christmas Carol
Страна: США, Япония
Жанр: Семейный, фэнтези, мультфильм
Продолжительность: 00:48:35
Год выпуска: 1994
Перевод: Профессиональный (многоголосый закадровый)
Русские субтитры: нет
Режиссёр: Тошиюки Хирума / Toshiyuki Hiruma-Описание: Похоронив своего давнего друга и партнера по бизнесу, Эбенезер Скрудж, и так не отличавшийся особой душевной добротой, впал в уныние и возненавидел весь окружающий мир. Особенно достается его верному и безответному помощнику Бобу Крэтчиту. Но когда в Рождественскую ночь Скруджу являются Духи Рождества, они открывают ему глаза на его прошлое, настоящее и будущее. Скрудж понимает, что в погоне за богатством лишился самого главного: счастья любить и быть любимым. Умоляя Духов дать ему второй шанс, Скрудж обещает изменить образ жизни и навсегда «впустить Рождество к себе в сердце»…-Доп. материалы: Трейлеры к фильмам и мультфильмам: "Приключения Пиноккио", "Отважный маленький тостер", "Как стать волшебником" (на немецком языке)
Качество: DVD5 (Custom)
Формат: DVD-video
Видео: MPEG-2 PAL, 720x576, 25fps, ~6400 Kb/s
Аудио 1: AC3, 48khz, 2ch, 192 kb/s, Русский
Аудио 2: AC3, 48khz, 2ch, 192 kb/s, Deutsch
Субтитры: отсутствуют
Релиз:

DVDInfo

Title: A Cristmas Carol 1994 DVD5Size: 2.65 Gb ( 2 778 130,00 KBytes ) - DVD-5Enabled regions: 1, 2, 3, 4, 5, 6, 7, 8
VTS_01 : Play Length: 00:48:35 Video: PAL 4:3 (720x576) VBR Audio: Russian (Dolby AC3, 2 ch) Deutsch (Dolby AC3, 2 ch)
VTS_02 : Play Length: 00:00:28+{00:00:28} Video: PAL 4:3 (720x576) VBR Audio: Deutsch (Dolby AC3, 2 ch)
VTS_03 : Play Length: 00:01:52+{00:01:52} Video: PAL 4:3 (720x576) VBR Audio: Deutsch (Dolby AC3, 2 ch)
VTS_04 : Play Length: 00:00:43+{00:00:43} Video: PAL 4:3 (720x576) VBR Audio: Deutsch (Dolby AC3, 2 ch)
VTS_05 : Play Length: 00:01:47+{00:01:47} Video: PAL 4:3 (720x576) VBR Audio: Deutsch (Dolby AC3, 2 ch)
VTS_06 : Play Length: 00:00:00+{00:00:00} Video: PAL 4:3 (720x576) VBR Audio: Deutsch (Dolby AC3, 6 ch)
VTS_07 : Play Length: 00:00:00+{00:00:00} Video: PAL 4:3 (720x576) VBR Audio: Deutsch (Dolby AC3, 2 ch)
* Menus Information *
VIDEO_TS MenuVideo: NTSC 4:3 (720x480) VBR Auto Pan&Scan, Auto LetterboxedEnglish Language Unit : Title Menu
VTS_01 MenuVideo: PAL 4:3 (720x576) VBRAudio: Not specified (Dolby AC3, 2 ch)English Language Unit : Root Menu
VTS_02 MenuVideo: PAL 4:3 (720x576) VBREnglish Language Unit : Root Menu
VTS_03 MenuVideo: PAL 4:3 (720x576) VBREnglish Language Unit : Root Menu
VTS_04 MenuVideo: PAL 4:3 (720x576) VBREnglish Language Unit : Root Menu
VTS_05 MenuVideo: PAL 4:3 (720x576) VBREnglish Language Unit : Root Menu
VTS_06 MenuVideo: PAL 4:3 (720x576) VBREnglish Language Unit : Root Menu
VTS_07 MenuVideo: PAL 4:3 (720x576) VBREnglish Language Unit : Root Menu

MediaInfo

ОбщееПолное имя : E:\MULTFILMS\A Cristmas Carol 1994 DVD5\VIDEO_TS\VTS_01_1.VOBФормат : MPEG-PSРазмер файла : 1024 МбайтПродолжительность : 20 м.Режим общего битрейта : ПеременныйОбщий поток : 6962 Кбит/сек
ВидеоИдентификатор : 224 (0xE0)Формат : MPEG VideoВерсия формата : Version 2Профиль формата : Main@MainПараметр BVOP формата : ДаПараметр матрицы формата : ВыборочнаяПараметр GOP формата : VariableПродолжительность : 20 м.Вид битрейта : ПеременныйБитрейт : 6440 Кбит/секМаксимальный битрейт : 2000 Кбит/секШирина : 720 пикселейВысота : 576 пикселейСоотношение сторон : 16:9Частота кадров : 25,000 кадров/секСтандарт вещания : PALЦветовое пространство : YUVСубдискретизация насыщенности : 4:2:0Битовая глубина : 8 битТип развёртки : ЧересстрочнаяПорядок развёртки : Верхнее поле первоеМетод сжатия : С потерямиБит/(Пиксели*Кадры) : 0.621Временной код первого кадра : 09:59:59:00Оригинал временного кода : Group of pictures headerРазмер потока : 947 Мбайт (92%)
Аудио #1Идентификатор : 189 (0xBD)-128 (0x80)Формат : AC-3Формат/Информация : Audio Coding 3Расширение режима : CM (complete main)Параметр Endianness формата : BigРежим смешивания : DVD-VideoПродолжительность : 20 м.Вид битрейта : ПостоянныйБитрейт : 192 Кбит/секКаналы : 2 каналаРасположение каналов : Front: L RЧастота : 48,0 КГцБитовая глубина : 16 битМетод сжатия : С потерямиЗадержка видео : -80 мс.Размер потока : 28,2 Мбайт (3%)
Аудио #2Идентификатор : 189 (0xBD)-129 (0x81)Формат : AC-3Формат/Информация : Audio Coding 3Расширение режима : CM (complete main)Параметр Endianness формата : BigРежим смешивания : DVD-VideoПродолжительность : 20 м.Вид битрейта : ПостоянныйБитрейт : 192 Кбит/секКаналы : 2 каналаРасположение каналов : Front: L RЧастота : 48,0 КГцБитовая глубина : 16 битМетод сжатия : С потерямиЗадержка видео : -80 мс.Размер потока : 28,2 Мбайт (3%)

Скриншоты меню

Скриншоты


Скриншоты доп.материалов


Информация по сборке

Диск собран из немецкого DVD. Русская аудиодорожка из этой раздачи - играет по умолчанию. Немецкая аудиодорожка оставлена второй, выбирается с пульта.
Используемый софт:
PgcDemux (Разборка диска)
BeSweet (Распаковка звука в формат WAV)
Adobe Audition (Синхронизация аудио)
Minnetonka Audio (Конвертация звука в формат Dolby AC3)
MuxMan (Сборка диска)
DVD Remake Pro (Реавторинг DVD)


Показать сообщения:    

Текущее время: 16-Дек 03:38

Часовой пояс: UTC ± 0


Вы не можете начинать темы
Вы не можете отвечать на сообщения
Вы не можете редактировать свои сообщения
Вы не можете удалять свои сообщения
Вы не можете голосовать в опросах
Вы не можете прикреплять файлы к сообщениям
Вы не можете скачивать файлы

!ВНИМАНИЕ!
Сайт не предоставляет электронные версии произведений, а занимается лишь коллекционированием и каталогизацией ссылок, присылаемых и публикуемых на форуме нашими читателями. Если вы являетесь правообладателем какого-либо представленного материала и не желаете, чтобы ссылка на него находилась в нашем каталоге, свяжитесь с нами, и мы незамедлительно удалим ее. Файлы для обмена на трекере предоставлены пользователями сайта, и администрация не несет ответственности за их содержание. Просьба не заливать файлы, защищенные авторскими правами, а также файлы нелегального содержания!